<?xml version="1.0" standalone="no"?>
<!DOCTYPE svg PUBLIC "-//W3C//DTD SVG 1.1//EN" "http://www.w3.org/Graphics/SVG/1.1/DTD/svg11.dtd" >
<svg xmlns="http://www.w3.org/2000/svg">
<metadata></metadata>
<defs>
<font id="roboto_condensedlight" horiz-adv-x="996" >
<font-face units-per-em="2048" ascent="1536" descent="-512" />
<missing-glyph horiz-adv-x="460" />
<glyph unicode="&#xfb01;" horiz-adv-x="969" d="M57 982v100h150v113q0 87 21.5 154.5t61.5 113.5t97 70t128 24q57 0 115 -15t118 -44l-19 -105q-43 22 -91.5 37t-114.5 15q-103 0 -153.5 -63.5t-50.5 -186.5v-113h207v-100h-207v-982h-112v982h-150zM695 0v1082h112v-1082h-112z" />
<glyph horiz-adv-x="0" />
<glyph unicode="&#xd;" horiz-adv-x="460" />
<glyph horiz-adv-x="0" />
<glyph horiz-adv-x="0" />
<glyph horiz-adv-x="40" />
<glyph unicode="&#x9;" horiz-adv-x="40" />
<glyph unicode=" "  horiz-adv-x="460" />
<glyph unicode="&#x09;" horiz-adv-x="460" />
<glyph unicode="&#xa0;" horiz-adv-x="460" />
<glyph unicode="!" horiz-adv-x="438" d="M149 71q0 35 19.5 58.5t54.5 23.5t54.5 -23.5t19.5 -58.5q0 -34 -19.5 -56.5t-54.5 -22.5t-54.5 22.5t-19.5 56.5zM160 1456h116l-7 -1050h-103z" />
<glyph unicode="&#x22;" horiz-adv-x="588" d="M143 1081l3 309v146h97v-140l-20 -315h-80zM378 1081l4 313v142h97v-140l-20 -315h-81z" />
<glyph unicode="#" horiz-adv-x="1108" d="M77 410v95h226l70 437h-233v98h248l67 416h91l-67 -416h255l67 416h92l-67 -416h188v-98h-204l-70 -437h211v-95h-226l-65 -410h-91l65 410h-255l-65 -410h-91l65 410h-211zM394 505h255l70 437h-255z" />
<glyph unicode="$" d="M116 419h111q0 -96 25.5 -160t65.5 -102.5t89.5 -54t98.5 -15.5q63 0 111.5 21t82.5 58t51.5 86.5t17.5 106.5q0 55 -13.5 99t-45 81t-82 69t-125.5 64q-80 31 -143.5 67t-108 85.5t-68 115t-23.5 154.5q0 81 21.5 148t62 116.5t98 79.5t128.5 37v203h94v-204 q146 -17 226.5 -131t80.5 -316h-110q0 73 -16 135.5t-47 108.5t-77.5 71.5t-106.5 25.5q-62 0 -108 -21.5t-76 -58.5t-45 -86.5t-15 -105.5q0 -54 12 -97.5t42.5 -80.5t82.5 -70t133 -66q79 -32 142.5 -68t107.5 -84.5t67.5 -113.5t23.5 -155q0 -83 -23 -150t-65 -115.5 t-102 -77.5t-133 -36v-190h-92v189q-67 6 -130 31.5t-112 77.5t-78.5 132.5t-29.5 196.5z" />
<glyph unicode="%" horiz-adv-x="1309" d="M111 1099v77q0 62 17 116.5t48 95.5t75.5 65t100.5 24t100.5 -24t76 -65t48.5 -95.5t17 -116.5v-77q0 -61 -17 -115.5t-48 -95t-75.5 -64.5t-99.5 -24q-56 0 -101 24t-76.5 64.5t-48.5 95t-17 115.5zM199 1099q0 -40 9.5 -78t28.5 -67.5t48.5 -47.5t68.5 -18t67.5 18 t47 47.5t28 67.5t9.5 78v77q0 40 -9.5 78t-28.5 68t-48 48t-68 18t-67.5 -18t-47.5 -48t-28.5 -68t-9.5 -78v-77zM319 169l597 1138l68 -49l-598 -1138zM723 279v78q0 61 17 116t48 95.5t75.5 64.5t99.5 24q56 0 101 -24t76.5 -64.5t48.5 -95.5t17 -116v-78 q0 -62 -17 -116.5t-48.5 -95t-76 -64.5t-99.5 -24q-56 0 -100.5 24t-76 64.5t-48.5 95t-17 116.5zM810 279q0 -40 9.5 -78t28.5 -68t48.5 -48t68.5 -18t68 18t47.5 47.5t28 67.5t9.5 79v78q0 42 -9.5 80.5t-28.5 67.5t-48.5 46t-68.5 17q-38 0 -67 -17t-48 -46t-28.5 -67.5 t-9.5 -80.5v-78z" />
<glyph unicode="&#x26;" horiz-adv-x="1100" d="M110 372q0 66 18.5 121.5t50.5 105t76.5 95.5t95.5 91l8 7q-33 47 -59.5 91t-44.5 87t-28 86t-10 88q0 77 20 138.5t57.5 104.5t90.5 66t118 23q63 0 112.5 -23t84 -62t52.5 -91t18 -110q0 -50 -14 -93.5t-36.5 -81.5t-52.5 -70.5t-61 -60.5l-109 -99l328 -458 q33 67 52 149t19 176h102q0 -249 -107 -416l169 -236h-134l-102 142q-66 -76 -152 -119t-180 -43q-89 0 -159.5 28.5t-120 80t-76 123.5t-26.5 160zM220 372q0 -58 16.5 -110.5t50.5 -92t85 -63t120 -23.5q75 0 144.5 38t125.5 107l-337 472l-10 12l-36 -33 q-53 -52 -84 -97.5t-48 -84t-22 -70t-5 -55.5zM328 1148q0 -65 29.5 -135t82.5 -148l105 96q53 46 86.5 100.5t33.5 128.5q0 35 -10.5 68t-31 58.5t-51 40.5t-70.5 15q-43 0 -75.5 -18t-54.5 -48.5t-33 -71.5t-11 -86z" />
<glyph unicode="'" horiz-adv-x="348" d="M119 1089l5 298v149h102v-139l-17 -308h-90z" />
<glyph unicode="(" horiz-adv-x="596" d="M136 573v15q0 196 36.5 366.5t93 306t124.5 231t132 141.5l26 -84q-54 -47 -108 -136t-96.5 -213t-69 -278.5t-26.5 -330.5v-20q0 -176 26.5 -330.5t69 -278.5t96.5 -214.5t108 -138.5l-26 -79q-64 46 -132 139.5t-124.5 227.5t-93 304.5t-36.5 371.5z" />
<glyph unicode=")" horiz-adv-x="607" d="M49 -391q54 47 108 137t96.5 214.5t69 279.5t26.5 331v20q0 176 -27.5 331.5t-71 280.5t-96.5 215t-105 136l25 79q43 -31 88 -84t88 -125.5t81 -163t67 -196.5t45.5 -225.5t16.5 -250.5v-15q0 -134 -16.5 -254.5t-45.5 -226t-67 -195.5t-81 -161t-88 -123t-88 -83z" />
<glyph unicode="*" horiz-adv-x="869" d="M29 1106l32 104l332 -123l-4 369h104l-8 -372l324 127l33 -104l-333 -114l223 -293l-85 -64l-214 304l-204 -302l-85 62l217 300z" />
<glyph unicode="+" horiz-adv-x="1012" d="M83 627v115h360v464h113v-464h366v-115h-366v-481h-113v481h-360z" />
<glyph unicode="," horiz-adv-x="392" d="M60 -220q46 62 70 125t24 142v143h117v-141q0 -45 -9.5 -90t-27.5 -86.5t-44 -78.5t-59 -67z" />
<glyph unicode="-" horiz-adv-x="529" d="M59 590v103h404v-103h-404z" />
<glyph unicode="." horiz-adv-x="489" d="M145 73q0 36 22.5 60.5t62.5 24.5t63 -24.5t23 -60.5q0 -35 -23 -58t-63 -23t-62.5 23t-22.5 58z" />
<glyph unicode="/" horiz-adv-x="728" d="M43 -125l511 1581h99l-510 -1581h-100z" />
<glyph unicode="0" d="M120 608v244q0 161 26 278.5t74.5 194.5t118.5 114t158 37t158.5 -37t119.5 -114t75 -194.5t26 -278.5v-244q0 -161 -25.5 -279.5t-74 -196t-118.5 -115t-159 -37.5q-88 0 -158 37.5t-119 115t-75.5 196t-26.5 279.5zM230 594q0 -123 17.5 -218t51 -160t84 -99t116.5 -34 q67 0 116.5 34t82.5 99t49.5 160t16.5 218v274q0 250 -66.5 377t-200.5 127q-132 0 -199.5 -127t-67.5 -377v-274z" />
<glyph unicode="1" d="M168 1162v114l422 185h19v-1461h-112v1309z" />
<glyph unicode="2" d="M106 1036q0 90 26 170t74.5 140t119 95t160.5 35q83 0 150 -27t113.5 -77t71.5 -123t25 -164q0 -66 -20 -132.5t-53 -132.5t-76.5 -131t-89.5 -128l-339 -458h637v-103h-772v94l400 540q56 76 94.5 137t62 113.5t33.5 98.5t10 91q0 65 -16 120t-47 94.5t-77.5 61.5 t-106.5 22q-63 0 -113 -25t-84.5 -70t-53 -106.5t-18.5 -134.5h-111z" />
<glyph unicode="3" d="M102 394h111q0 -69 20.5 -126t57 -98t88 -64t113.5 -23q127 0 197.5 79.5t70.5 229.5q0 78 -21.5 134.5t-61 93t-94.5 53.5t-122 17h-105v104h105q69 0 120.5 22.5t86.5 60.5t52.5 89.5t17.5 109.5q0 66 -15 120.5t-46 93.5t-77.5 60.5t-110.5 21.5q-56 0 -103.5 -20.5 t-82 -59.5t-54 -94t-19.5 -124h-111q0 88 27.5 162t77 127t117.5 83t148 30q81 0 147.5 -27t114 -78.5t73 -126.5t25.5 -172q0 -49 -13 -97.5t-39 -91.5t-65 -78.5t-91 -58.5q61 -20 104.5 -55t71.5 -80.5t41 -100t13 -114.5q0 -99 -28.5 -176.5t-79.5 -131t-120.5 -81 t-150.5 -27.5q-75 0 -145.5 26t-125 77.5t-87 129t-32.5 181.5z" />
<glyph unicode="4" d="M74 366v71l563 1019h120v-986h187v-104h-187v-366h-111v366h-572zM207 470h439v818l-40 -81z" />
<glyph unicode="5" d="M159 383h106q14 -147 83 -223.5t185 -76.5q127 0 192.5 99t65.5 280q0 76 -18 142t-52.5 114.5t-85 76t-116.5 27.5q-44 0 -77 -7.5t-59.5 -21t-49 -32.5t-44.5 -43l-88 28l60 710h615v-114h-520l-41 -488q16 13 39 27.5t52 26t62.5 19t71.5 7.5q82 0 149 -32.5 t114 -93.5t73 -148t26 -196q0 -105 -22 -193.5t-67 -153t-114.5 -101t-165.5 -36.5q-74 0 -138.5 24.5t-114.5 74.5t-82 126t-39 178z" />
<glyph unicode="6" d="M129 515v127q0 185 33.5 337t105 260t182 167.5t264.5 59.5h15v-107h-15q-110 0 -195 -39.5t-144 -114t-92.5 -180.5t-40.5 -238q51 81 127 125t169 44q88 0 154.5 -39t110 -104.5t65.5 -152.5t22 -183q0 -105 -25 -196t-72 -157.5t-114.5 -105t-153.5 -38.5 q-94 0 -167.5 42.5t-124.5 115.5t-77.5 170t-26.5 207zM240 513q0 -101 22.5 -180.5t61 -134.5t90.5 -84.5t111 -29.5q60 0 107.5 30.5t80.5 83t50.5 123.5t17.5 151q0 76 -16 145t-48.5 121t-81.5 82.5t-115 30.5q-48 0 -93 -18t-82.5 -50t-64.5 -75.5t-40 -94.5v-100z" />
<glyph unicode="7" d="M85 1352v104h808v-70l-520 -1386h-116l517 1352h-689z" />
<glyph unicode="8" d="M110 386q0 64 16 120t46 102.5t72 81.5t93 57q-45 22 -81.5 55.5t-62 76t-39.5 94t-14 108.5q0 95 27 168.5t75 124t113.5 76.5t142.5 26q76 0 142 -26t114 -76.5t75.5 -124t27.5 -168.5q0 -57 -14.5 -108.5t-40.5 -94t-62.5 -76t-81.5 -55.5q52 -22 94.5 -57t73 -81.5 t47 -102.5t16.5 -120q0 -99 -30.5 -175t-83 -127.5t-123.5 -77.5t-152 -26q-83 0 -154 26t-123.5 77.5t-82.5 127.5t-30 175zM220 386q0 -72 20.5 -128.5t57.5 -95.5t88.5 -59t113.5 -20q61 0 111.5 20t87.5 59t57.5 95.5t20.5 128.5q0 69 -21 126t-58.5 97.5t-88.5 63 t-111 22.5q-61 0 -112 -22.5t-88 -63t-57.5 -97.5t-20.5 -126zM252 1082q0 -65 18 -117.5t51 -89t78.5 -56.5t99.5 -20q53 0 98.5 20t78.5 56.5t51.5 89t18.5 117.5q0 63 -19 116.5t-52 92t-78.5 60t-98.5 21.5q-54 0 -99 -20t-77.5 -57.5t-51 -91.5t-18.5 -121z" />
<glyph unicode="9" d="M105 965q0 105 25 198t72 162.5t116 110t158 40.5q99 0 172.5 -43.5t121.5 -120.5t71.5 -184t23.5 -233v-115q0 -107 -11 -207.5t-36.5 -188.5t-68 -160.5t-106 -124.5t-150 -80.5t-199.5 -28.5h-21l1 106h20q128 0 215 43t140.5 119.5t77.5 180t27 225.5 q-25 -42 -57.5 -76.5t-70.5 -59t-81 -38t-90 -13.5q-87 0 -152.5 41t-109.5 109t-66 156t-22 182zM214 970q0 -74 16.5 -144t48.5 -124t80 -87t111 -33q54 0 100 21.5t82 56.5t62 80.5t41 93.5v73q0 114 -21 200.5t-58 145t-88 88.5t-111 30q-62 0 -110.5 -32.5t-82.5 -87.5 t-52 -127.5t-18 -153.5z" />
<glyph unicode=":" horiz-adv-x="412" d="M131 73q0 36 22.5 60.5t62.5 24.5t63 -24.5t23 -60.5q0 -35 -23 -58t-63 -23t-62.5 23t-22.5 58zM133 995q0 36 22.5 60.5t62.5 24.5t63 -24.5t23 -60.5q0 -35 -23 -58t-63 -23t-62.5 23t-22.5 58z" />
<glyph unicode=";" horiz-adv-x="381" d="M62 -220q46 62 70 125t24 142v143h117v-141q0 -45 -9.5 -90t-27.5 -86.5t-44 -78.5t-59 -67zM122 995q0 36 22.5 60.5t62.5 24.5t63 -24.5t23 -60.5q0 -35 -23 -58t-63 -23t-62.5 23t-22.5 58z" />
<glyph unicode="&#x3c;" horiz-adv-x="919" d="M84 607v99l693 378v-129l-576 -300l576 -298v-129z" />
<glyph unicode="=" horiz-adv-x="990" d="M145 417v108h701v-108h-701zM145 828v108h701v-108h-701z" />
<glyph unicode="&#x3e;" horiz-adv-x="933" d="M126 230v126l589 303l-589 300v127l711 -378v-99z" />
<glyph unicode="?" horiz-adv-x="827" d="M89 1115q1 85 27 152.5t70.5 113.5t104 70.5t128.5 24.5q76 0 135 -27t99 -76.5t61 -118.5t21 -152q0 -66 -15 -122.5t-42 -107t-63.5 -97.5t-79.5 -95q-53 -55 -72.5 -125t-19.5 -150h-110q0 64 7.5 112t23.5 89t43 79t66 83q33 39 60.5 74t47.5 72.5t31.5 82 t11.5 104.5q0 59 -13 108t-39 84t-64 54.5t-89 19.5q-47 0 -86.5 -17t-69 -49.5t-46.5 -79t-18 -106.5h-110zM321 71q0 35 19 58.5t54 23.5t54.5 -23.5t19.5 -58.5q0 -34 -19.5 -56.5t-54.5 -22.5t-54 22.5t-19 56.5z" />
<glyph unicode="@" horiz-adv-x="1606" d="M121 478q7 210 61.5 383.5t148.5 298t224 193t289 68.5q166 0 290.5 -64t205.5 -182t118 -286.5t30 -376.5q-2 -63 -11.5 -126.5t-27 -123t-44 -111t-62.5 -89.5t-82.5 -60t-103.5 -22q-81 0 -132.5 49.5t-68.5 139.5q-45 -94 -108.5 -141.5t-136.5 -47.5q-60 0 -105 32 t-73 90.5t-38.5 140.5t-2.5 183q10 129 42.5 233t81.5 177t110.5 112.5t129.5 39.5q43 0 76 -8.5t59.5 -23.5t49 -34.5t45.5 -41.5l-44 -569q-5 -80 6.5 -128t31.5 -74t44.5 -34t44.5 -8q55 0 97.5 34t72 94t46 141t19.5 176q8 189 -21 340t-98 256t-179.5 161.5 t-265.5 56.5q-134 0 -246 -60.5t-194.5 -171.5t-131 -267.5t-55.5 -348.5q-8 -186 26 -340.5t106 -265.5t181 -172.5t251 -61.5q37 0 75.5 5.5t75 16t69 25t58.5 32.5l27 -81q-29 -22 -66 -38.5t-78.5 -28t-83.5 -17t-80 -5.5q-160 0 -284.5 64.5t-209 185.5t-126 293.5 t-33.5 387.5zM589 285q6 -64 24 -109.5t48 -71t72 -25.5q28 0 58 11.5t58.5 39.5t54.5 75.5t47 119.5l39 525q-25 20 -56 33t-71 13q-50 0 -95 -28.5t-81.5 -87t-62 -147t-35.5 -207.5q-6 -77 0 -141z" />
<glyph unicode="A" horiz-adv-x="1123" d="M45 0l464 1456h106l464 -1456h-119l-126 407h-546l-124 -407h-119zM321 514h480l-240 781z" />
<glyph unicode="B" horiz-adv-x="1097" d="M172 0v1456h369q93 0 167.5 -22.5t126 -69t79 -118.5t27.5 -171q0 -112 -52 -195t-144 -120q55 -14 98.5 -46.5t74.5 -79t47.5 -104t16.5 -120.5q0 -100 -28.5 -176.5t-80 -128.5t-124.5 -78.5t-161 -26.5h-416zM286 106h302q66 0 118 21t88 60t55 95t19 126 q0 62 -16.5 115t-50 92t-84.5 61.5t-121 22.5h-310v-593zM286 804h265q130 0 202 69t72 205q0 139 -70.5 204.5t-213.5 65.5h-255v-544z" />
<glyph unicode="C" horiz-adv-x="1158" d="M136 576v313q0 137 32 246t92 184.5t146 116t195 40.5q99 0 177.5 -28t135.5 -86t90 -148t41 -214h-116q-8 100 -31 170t-63.5 114t-98.5 64t-135 20q-85 0 -150 -32.5t-109.5 -93.5t-67 -150t-22.5 -201v-315q0 -111 21.5 -201.5t64 -154.5t106 -99t148.5 -35 q80 0 140 18.5t101 61.5t64.5 113.5t31.5 174.5h116q-16 -245 -132 -359.5t-321 -114.5q-105 0 -189.5 41t-143.5 118t-91 187.5t-32 249.5z" />
<glyph unicode="D" horiz-adv-x="1167" d="M172 0v1456h343q115 0 210.5 -38t163.5 -112t105.5 -183t37.5 -250v-291q0 -141 -37.5 -250t-106 -182.5t-165.5 -111.5t-216 -38h-335zM286 106h221q98 0 174.5 31t129.5 91.5t80.5 149.5t27.5 204v294q0 117 -28 205t-80 147.5t-127 89.5t-169 30h-229v-1242z" />
<glyph unicode="E" horiz-adv-x="1018" d="M172 0v1456h759v-108h-645v-545h565v-106h-565v-591h650v-106h-764z" />
<glyph unicode="F" horiz-adv-x="1004" d="M172 0v1456h758v-108h-644v-562h560v-108h-560v-678h-114z" />
<glyph unicode="G" horiz-adv-x="1215" d="M147 566v334q0 141 31.5 249t91.5 180.5t147 109.5t198 37q103 0 182.5 -29t135 -84t87 -135.5t38.5 -182.5h-114q-8 75 -29.5 135t-61 102t-98 64t-139.5 22q-178 0 -266.5 -118.5t-88.5 -347.5v-336q0 -118 26 -207.5t74 -150t116.5 -91.5t154.5 -31q69 0 122 14 t91 33.5t62 40t37 33.5v379h-319v107h434v-524q-17 -22 -49 -54t-83.5 -62t-124.5 -51.5t-170 -21.5q-109 0 -198.5 37.5t-153 111.5t-98.5 183.5t-35 253.5z" />
<glyph unicode="H" horiz-adv-x="1259" d="M172 0v1456h114v-653h684v653h115v-1456h-115v697h-684v-697h-114z" />
<glyph unicode="I" horiz-adv-x="500" d="M193 0v1456h114v-1456h-114z" />
<glyph unicode="J" horiz-adv-x="987" d="M77 401h114q0 -158 68.5 -236.5t189.5 -78.5q54 0 101 22t82 66t55 108.5t20 150.5v1023h115v-1023q0 -110 -28 -194.5t-78 -142t-118.5 -87t-148.5 -29.5q-83 0 -151.5 25.5t-117.5 78t-76 131.5t-27 186z" />
<glyph unicode="K" horiz-adv-x="1124" d="M172 0v1456h114v-776l160 200l451 576h143l-508 -648l547 -808h-139l-485 718l-169 -196v-522h-114z" />
<glyph unicode="L" horiz-adv-x="950" d="M172 0v1456h115v-1350h600v-106h-715z" />
<glyph unicode="M" horiz-adv-x="1531" d="M172 0v1456h151l441 -1281l443 1281h151v-1456h-114v633l10 633l-446 -1266h-88l-444 1260l10 -627v-633h-114z" />
<glyph unicode="N" horiz-adv-x="1262" d="M172 0v1456h115l688 -1242v1242h113v-1456h-114l-687 1240v-1240h-115z" />
<glyph unicode="O" horiz-adv-x="1208" d="M132 570v314q0 144 33 254.5t94.5 185.5t148.5 113.5t195 38.5q109 0 196.5 -38.5t148.5 -113.5t94 -185.5t33 -254.5v-314q0 -144 -32.5 -254.5t-93.5 -185t-148 -112.5t-196 -38q-108 0 -195 38t-149 112.5t-95.5 185t-33.5 254.5zM246 570q0 -240 95 -360.5 t264 -120.5q174 0 264.5 120t90.5 361v316q0 239 -92 359t-265 120q-169 0 -263 -120t-94 -359v-316z" />
<glyph unicode="P" horiz-adv-x="1104" d="M172 0v1456h423q102 0 179.5 -32t130 -89.5t79 -137.5t26.5 -176q0 -101 -26.5 -181t-79 -135t-130 -84t-179.5 -29h-309v-592h-114zM286 699h309q80 0 137 24.5t93.5 67.5t53.5 101.5t17 126.5q0 66 -17 126t-53.5 105t-93.5 71.5t-137 26.5h-309v-649z" />
<glyph unicode="Q" horiz-adv-x="1208" d="M128 570v314q0 144 33 254.5t94.5 185.5t148.5 113.5t194 38.5q109 0 197 -38.5t149 -113.5t94 -185.5t33 -254.5v-314q0 -195 -58 -326.5t-165 -198.5l219 -220l-78 -79l-250 252q-65 -18 -139 -18q-107 0 -194.5 38t-149 113t-95 185t-33.5 254zM242 570 q0 -240 95 -360.5t263 -120.5q175 0 265.5 120t90.5 361v316q0 239 -92 359t-266 120q-168 0 -262 -120t-94 -359v-316z" />
<glyph unicode="R" horiz-adv-x="1126" d="M170 0v1456h399q97 0 174.5 -28t131.5 -82.5t83 -134.5t29 -184q0 -72 -18 -135t-51 -114t-79.5 -88.5t-102.5 -57.5l303 -619v-13h-122l-292 606h-340v-606h-115zM285 712h304q70 0 123.5 26t88.5 69.5t53 100.5t18 119q0 74 -19.5 133.5t-58 101t-95 64t-130.5 22.5 h-284v-636z" />
<glyph unicode="S" horiz-adv-x="1059" d="M93 416h114q0 -92 30.5 -155t79.5 -102t110.5 -56t123.5 -17q70 0 126.5 19.5t96 55t61 85.5t21.5 112q0 60 -15.5 106.5t-53 84.5t-100.5 70t-157 64q-92 31 -165.5 67.5t-125.5 85t-80 113t-28 150.5q0 84 30.5 153.5t85 119t130 77t166.5 27.5q98 0 176 -34t133 -93 t84 -138.5t29 -170.5h-115q0 71 -20.5 131t-59.5 104t-96 68.5t-131 24.5t-129.5 -21t-92.5 -57.5t-56 -85t-19 -103.5q0 -52 16.5 -95.5t54.5 -80.5t99.5 -69.5t150.5 -61.5q98 -32 173.5 -70.5t127 -89.5t78 -118.5t26.5 -155.5q0 -89 -31.5 -159.5t-87.5 -119.5t-133 -75 t-169 -26q-82 0 -164 25t-147 77.5t-106 135t-41 198.5z" />
<glyph unicode="T" horiz-adv-x="1067" d="M63 1348v108h942v-108h-414v-1348h-115v1348h-413z" />
<glyph unicode="U" horiz-adv-x="1168" d="M152 429v1027h114v-1027q0 -95 23.5 -160.5t66 -106t101 -58.5t128.5 -18t128.5 18t100.5 58.5t65.5 106t23.5 160.5v1027h115v-1027q0 -123 -34.5 -208.5t-93.5 -139t-137.5 -77.5t-167.5 -24q-92 0 -171 24t-137.5 77.5t-91.5 139t-33 208.5z" />
<glyph unicode="V" horiz-adv-x="1107" d="M45 1456h125l380 -1274l3 -16l4 16l380 1274h126l-455 -1456h-108z" />
<glyph unicode="W" horiz-adv-x="1579" d="M71 1456h117l217 -1060l35 -216l44 206l261 1070h102l257 -1070l43 -208l38 218l215 1060h116l-310 -1456h-108l-273 1135l-29 135l-28 -135l-279 -1135h-109z" />
<glyph unicode="X" horiz-adv-x="1097" d="M66 0l415 738l-403 718h136l335 -614l335 614h136l-401 -718l413 -738h-137l-346 633l-347 -633h-136z" />
<glyph unicode="Y" horiz-adv-x="1070" d="M39 1456h134l361 -792l363 792h131l-438 -908v-548h-114v548z" />
<glyph unicode="Z" horiz-adv-x="1069" d="M95 0v95l720 1254h-700v107h835v-91l-722 -1259h749v-106h-882z" />
<glyph unicode="[" horiz-adv-x="461" d="M154 -312v1976h285v-104h-174v-1768h174v-104h-285z" />
<glyph unicode="\" horiz-adv-x="723" d="M59 1456h108l510 -1581h-107z" />
<glyph unicode="]" horiz-adv-x="461" d="M21 -208h175v1768h-175v104h286v-1976h-286v104z" />
<glyph unicode="^" horiz-adv-x="756" d="M82 729l252 727h81l250 -727h-106l-185 566l-185 -566h-107z" />
<glyph unicode="_" horiz-adv-x="789" d="M21 0h746v-103h-746v103z" />
<glyph unicode="`" horiz-adv-x="585" d="M103 1525h144l191 -280h-109z" />
<glyph unicode="a" horiz-adv-x="964" d="M105 284q0 75 26 138.5t77.5 109.5t128.5 72t179 26h183v151q0 116 -57.5 166.5t-168.5 50.5q-52 0 -95.5 -16t-74.5 -44.5t-48 -68t-17 -86.5l-111 1q0 63 25 120.5t71 101.5t111 70t144 26q73 0 133.5 -17.5t104.5 -56t68.5 -100t24.5 -149.5v-552q0 -28 2 -58 t5.5 -58.5t9 -54t12.5 -44.5v-12h-118q-8 27 -13 67.5t-7 82.5q-21 -34 -50 -64.5t-66.5 -54t-83.5 -37.5t-99 -14q-67 0 -121.5 19t-93.5 57t-60 95t-21 133zM217 293q0 -107 52.5 -156.5t145.5 -49.5q52 0 97.5 14.5t81.5 40t62.5 59.5t42.5 73v263h-167q-157 0 -236 -66 t-79 -178z" />
<glyph unicode="b" d="M148 0v1536h110v-605q43 81 111 126t168 45q84 0 149 -29t109.5 -91t68 -158.5t23.5 -232.5v-101q0 -131 -23.5 -227t-68 -159t-109 -93.5t-147.5 -30.5q-101 0 -170.5 44t-112.5 121l-5 -145h-103zM258 264q15 -38 38.5 -70.5t55.5 -56.5t73 -37.5t92 -13.5 q134 0 196.5 98t62.5 306v101q0 206 -61 305t-200 99q-54 0 -96 -16t-73 -43t-52.5 -62.5t-35.5 -73.5v-536z" />
<glyph unicode="c" horiz-adv-x="929" d="M98 480v122q0 248 98.5 374t292.5 126q74 0 137.5 -23.5t110 -71t74.5 -120t31 -170.5h-107q-3 75 -23 128.5t-52.5 87.5t-76 49.5t-94.5 15.5q-77 0 -130 -26.5t-86 -77.5t-48 -124.5t-15 -167.5v-122q0 -95 14.5 -169t47.5 -124.5t86.5 -77t131.5 -26.5q46 0 89 12 t76.5 41t55 77.5t24.5 121.5h107q-4 -87 -33 -153.5t-77 -111t-110 -67.5t-132 -23q-195 0 -293.5 126t-98.5 374z" />
<glyph unicode="d" horiz-adv-x="999" d="M108 490v101q0 136 24.5 232.5t70.5 158.5t111.5 91t146.5 29q97 0 164.5 -43.5t110.5 -121.5v599h111v-1536h-104l-5 139q-43 -75 -111.5 -117t-166.5 -42q-81 0 -146 30.5t-110.5 93.5t-70.5 159t-25 227zM221 490q0 -208 62.5 -306t198.5 -98q49 0 88.5 12.5t71 35 t54.5 53t40 66.5v561q-15 36 -37 69t-52.5 57.5t-71 39.5t-92.5 15q-137 0 -199.5 -98.5t-62.5 -305.5v-101z" />
<glyph unicode="e" horiz-adv-x="937" d="M96 470v123q0 136 32 232.5t85.5 158t124 90t148.5 28.5q178 0 270.5 -117.5t92.5 -359.5v-94h-643v-61q0 -99 22 -172t62 -121t96 -71.5t124 -23.5q84 0 146 28.5t113 88.5l58 -74q-22 -30 -51.5 -56t-69 -46t-89.5 -31.5t-112 -11.5q-90 0 -165 29.5t-129.5 90 t-84.5 152.5t-30 218zM207 635h531v29q-2 79 -18 141t-46.5 105t-77.5 65.5t-110 22.5q-59 0 -108.5 -20t-86 -63.5t-58.5 -112.5t-26 -167z" />
<glyph unicode="f" horiz-adv-x="615" d="M72 982v100h149v133q0 166 73 254t202 88q26 0 53.5 -4t53.5 -13l-8 -102q-20 5 -42 8t-48 3q-81 0 -126.5 -60.5t-45.5 -173.5v-133h212v-100h-212v-982h-112v982h-149z" />
<glyph unicode="g" d="M109 490v101q0 136 24 232.5t69.5 158.5t111 91t147.5 29q99 0 167 -45t111 -126l6 151h103v-1108q0 -106 -25.5 -182.5t-73 -126t-114.5 -73t-150 -23.5q-41 0 -85 10t-86.5 29.5t-80.5 47t-65 63.5l52 80q56 -64 121 -95.5t136 -31.5q63 0 111.5 16t81 51.5t49.5 92 t17 137.5v166q-43 -73 -111 -114t-165 -41q-81 0 -146 30.5t-110.5 93.5t-70 159t-24.5 227zM221 490q0 -208 63 -306t198 -98q50 0 90 13t71 36t54 54t39 68v553q-15 37 -36.5 70.5t-52 59t-71 40.5t-92.5 15q-137 0 -200 -98.5t-63 -305.5v-101z" />
<glyph unicode="h" horiz-adv-x="985" d="M148 0v1536h111v-624q48 87 121.5 138.5t168.5 51.5q68 0 121.5 -22t91 -70t57.5 -123.5t20 -182.5v-704h-110v705q0 83 -14.5 139t-41.5 89.5t-65.5 48t-86.5 14.5q-50 0 -91.5 -20.5t-74.5 -54.5t-57 -78t-39 -92v-751h-111z" />
<glyph unicode="i" horiz-adv-x="431" d="M144 1394q0 34 19 58t54 24t54.5 -24t19.5 -58t-19.5 -57.5t-54.5 -23.5t-54 23.5t-19 57.5zM160 0v1082h112v-1082h-112z" />
<glyph unicode="j" horiz-adv-x="436" d="M-61 -418l1 101q15 -5 36 -9t38 -4q69 0 105.5 49.5t36.5 151.5v1211h111v-1211q0 -150 -60.5 -229t-178.5 -79q-21 0 -45 5t-44 14zM139 1394q0 34 18.5 58t53.5 24t54.5 -24t19.5 -58t-19.5 -57.5t-54.5 -23.5t-53.5 23.5t-18.5 57.5z" />
<glyph unicode="k" horiz-adv-x="888" d="M148 0v1536h112v-977l93 118l335 405h138l-380 -457l416 -625h-132l-357 541l-113 -126v-415h-112z" />
<glyph unicode="l" horiz-adv-x="431" d="M160 0v1536h112v-1536h-112z" />
<glyph unicode="m" horiz-adv-x="1561" d="M144 0v1082h106l3 -162q46 83 118.5 132.5t171.5 49.5q97 0 167.5 -47.5t102.5 -151.5q22 43 52.5 80t69.5 63t85 41t100 15q71 0 126.5 -22.5t94 -71t58.5 -123.5t20 -180v-705h-111v706q0 85 -15.5 141t-44 89.5t-68.5 46.5t-88 13q-60 -1 -106 -26.5t-78 -65 t-49.5 -88.5t-21.5 -96v-720h-112v715q0 80 -15.5 134t-44 86.5t-68.5 46.5t-88 14q-54 0 -96 -20.5t-73 -54t-52 -77.5t-33 -91v-753h-111z" />
<glyph unicode="n" horiz-adv-x="986" d="M148 0v1082h106l3 -172q48 88 122.5 140t169.5 52q68 0 121.5 -22t91 -70t57.5 -123.5t20 -182.5v-704h-110v705q0 83 -14.5 139t-41.5 89.5t-65.5 48t-86.5 14.5q-50 0 -91.5 -20.5t-74.5 -54.5t-57 -78t-39 -92v-751h-111z" />
<glyph unicode="o" horiz-adv-x="1005" d="M106 484v112q0 123 29 217t81 158.5t124.5 97.5t160.5 33q89 0 162 -33t125 -97.5t80.5 -158.5t28.5 -217v-112q0 -123 -28.5 -217t-80.5 -157.5t-124.5 -96.5t-160.5 -33q-89 0 -162 33t-125 96.5t-81 157.5t-29 217zM218 484q0 -93 19 -167t55.5 -126t89.5 -80t121 -28 q72 0 125 28t88 80t52.5 126t17.5 167v112q0 91 -19 165.5t-55.5 127t-89.5 81t-121 28.5q-67 0 -119.5 -28.5t-89 -81t-55.5 -127t-19 -165.5v-112z" />
<glyph unicode="p" d="M148 -416v1498h102l5 -148q45 79 114 123.5t167 44.5q84 0 149 -29t110 -91t68 -158.5t23 -232.5v-101q0 -131 -23.5 -227t-67.5 -159t-109 -93.5t-147 -30.5q-98 0 -167.5 39.5t-113.5 110.5v-546h-110zM258 246q16 -35 39.5 -65t54.5 -52t70.5 -34t88.5 -12 q135 0 199.5 99.5t64.5 307.5v101q0 208 -64.5 306t-201.5 98q-51 0 -91.5 -14.5t-71 -39.5t-52 -57t-36.5 -68v-570z" />
<glyph unicode="q" horiz-adv-x="1003" d="M108 490v101q0 136 24 232.5t70 158.5t111.5 91t149.5 29q95 0 162.5 -42t111.5 -118l6 140h104v-1498h-112v542q-45 -69 -112 -107.5t-161 -38.5q-83 0 -149 30.5t-111.5 93.5t-69.5 159t-24 227zM221 490q0 -208 63.5 -307.5t199.5 -99.5q94 0 155 44.5t96 114.5v583 q-16 34 -38.5 65.5t-53 55.5t-70 38t-88.5 14q-137 0 -200.5 -99.5t-63.5 -307.5v-101z" />
<glyph unicode="r" horiz-adv-x="619" d="M148 0v1082h109l2 -162q37 85 98 133.5t150 48.5q18 0 38 -4t29 -9l-2 -111q-17 3 -33.5 5t-36.5 2q-49 0 -88.5 -17.5t-69.5 -49t-51.5 -75.5t-33.5 -96v-747h-111z" />
<glyph unicode="s" horiz-adv-x="914" d="M103 295h112q3 -64 26.5 -105t58.5 -65t78 -33t85 -9q55 0 97.5 14.5t71 39t43 58t14.5 71.5q0 33 -12.5 62t-41 56t-75 55t-115.5 60q-74 33 -132 63.5t-97.5 66t-60.5 80t-21 105.5q0 60 22.5 112.5t64.5 91.5t102 61.5t134 22.5q79 0 142 -23.5t106.5 -65.5 t66.5 -100.5t23 -127.5h-111q0 42 -15 80.5t-44 68t-71 47t-97 17.5q-57 0 -97 -15.5t-66 -41t-38 -58t-12 -65.5t10 -58.5t36.5 -49.5t71.5 -49.5t116 -59.5q75 -33 135 -64t101.5 -68.5t64 -84.5t22.5 -112q0 -67 -24 -121t-68.5 -92t-107 -58.5t-138.5 -20.5 q-88 0 -155 25.5t-112.5 68.5t-69 100t-23.5 121z" />
<glyph unicode="t" horiz-adv-x="594" d="M37 982v100h167v276h111v-276h185v-100h-185v-719q0 -56 9.5 -90.5t25.5 -53.5t36.5 -25.5t43.5 -6.5q22 0 43 3.5t37 6.5l3 -100q-18 -8 -47.5 -12.5t-61.5 -4.5q-43 0 -79.5 14t-63.5 47t-42 87.5t-15 135.5v718h-167z" />
<glyph unicode="u" horiz-adv-x="986" d="M145 389v693h110v-695q0 -86 16 -143.5t44 -92.5t64.5 -50t77.5 -15q58 0 102.5 15t77 42t54.5 64.5t35 82.5v792h112v-1082h-108l-2 129q-43 -70 -112.5 -109.5t-172.5 -39.5q-67 0 -122 22.5t-94 71.5t-60.5 126.5t-21.5 188.5z" />
<glyph unicode="v" horiz-adv-x="869" d="M51 1082h114l270 -908l266 908h114l-337 -1082h-88z" />
<glyph unicode="w" horiz-adv-x="1336" d="M70 1082h113l193 -836l9 -60l12 65l221 831h93l219 -824l16 -85l13 76l187 833h114l-265 -1082h-93l-235 860l-5 26l-4 -27l-231 -859h-94z" />
<glyph unicode="x" horiz-adv-x="880" d="M59 0l318 551l-306 531h130l237 -437l237 437h131l-307 -531l319 -551h-130l-249 455l-250 -455h-130z" />
<glyph unicode="y" horiz-adv-x="857" d="M45 1082h122l269 -899l258 899h119l-381 -1255q-12 -37 -30 -83t-48 -86t-73.5 -67.5t-105.5 -27.5q-9 0 -20 1.5t-22.5 3.5t-21.5 4.5t-16 4.5l-1 102q10 -3 26.5 -5t24.5 -2q40 0 70.5 12.5t54 37t41.5 61t32 84.5l42 140z" />
<glyph unicode="z" horiz-adv-x="880" d="M93 0v90l547 887h-532v105h667v-91l-550 -888h584v-103h-716z" />
<glyph unicode="{" horiz-adv-x="610" d="M76 543v106q51 0 87 18t59.5 51.5t34 80.5t10.5 106v227q0 79 14 150.5t47.5 132t88.5 107t137 75.5l24 -81q-55 -21 -93 -58t-61.5 -87t-34 -110.5t-10.5 -128.5v-227q0 -53 -9 -100.5t-28.5 -87t-49.5 -71t-71 -50.5q41 -20 71 -51.5t49.5 -72t28.5 -88t9 -99.5v-225 q0 -68 11 -128t35 -109t62 -85.5t93 -58.5l-26 -81q-82 29 -137 75.5t-88.5 106t-47.5 131t-14 149.5v225q0 58 -10.5 106t-34 81.5t-59.5 52t-87 18.5z" />
<glyph unicode="|" horiz-adv-x="452" d="M178 -270v1726h101v-1726h-101z" />
<glyph unicode="}" horiz-adv-x="610" d="M29 -321q55 22 93.5 58.5t62.5 85.5t35 109t11 128v225q0 53 9.5 101t29.5 88.5t51 71t74 49.5q-43 19 -74 49.5t-51 70.5t-29.5 88t-9.5 102v227q0 68 -10.5 128.5t-34.5 110.5t-62 87t-93 58l24 81q82 -29 137.5 -75.5t88.5 -107t47 -132t14 -150.5v-227q0 -59 11 -106 t34 -80.5t59 -51.5t87 -18v-106q-51 0 -87 -18.5t-59 -52t-34 -81.5t-11 -106v-225q0 -78 -14 -149.5t-47 -131t-88.5 -106t-137.5 -75.5z" />
<glyph unicode="~" horiz-adv-x="1216" d="M139 448q0 71 17.5 133t50 108t79.5 72.5t107 26.5q37 0 68.5 -10t61.5 -28.5t59.5 -45t61.5 -60.5q26 -30 48 -51.5t43 -35t42 -20t45 -6.5q37 0 66 16.5t49.5 47.5t31.5 74t11 96h95q0 -69 -17.5 -131.5t-50.5 -109.5t-80 -74.5t-105 -27.5q-38 0 -69.5 9.5t-60.5 27.5 t-58.5 45t-62.5 62q-26 28 -47.5 49.5t-42.5 35.5t-42.5 21t-45.5 7q-73 0 -113.5 -59.5t-40.5 -170.5z" />
<glyph unicode="&#xa1;" horiz-adv-x="427" d="M137 1021q0 34 19.5 57.5t54.5 23.5t54.5 -23.5t19.5 -57.5t-19.5 -58t-54.5 -24t-54.5 24t-19.5 58zM159 -359l6 1048h103l7 -1048h-116z" />
<glyph unicode="&#xa2;" horiz-adv-x="977" d="M117 480v122q0 228 83.5 352.5t248.5 143.5v220h111v-219q64 -8 118 -35t93.5 -74.5t63 -115.5t26.5 -157h-107q-3 75 -23 128.5t-52.5 87.5t-76 49.5t-94.5 15.5q-77 0 -130 -26.5t-86 -77.5t-48 -124.5t-15 -167.5v-122q0 -95 14.5 -169t47.5 -124.5t86.5 -77 t131.5 -26.5q46 0 89 12t76.5 41t55 77.5t24.5 121.5h107q-3 -79 -27.5 -141t-65 -106.5t-94 -71t-114.5 -33.5v-228h-111v229q-165 19 -248.5 143t-83.5 353z" />
<glyph unicode="&#xa3;" horiz-adv-x="1026" d="M98 644v107h150l-7 288q0 103 25.5 184.5t71.5 137.5t110 85.5t140 29.5q79 0 141 -28.5t105 -79.5t65 -122.5t22 -157.5h-114q0 75 -18.5 128.5t-50 87t-72.5 49.5t-87 16q-49 0 -90 -21.5t-70.5 -63.5t-46 -103.5t-16.5 -141.5l7 -288h286v-107h-283l8 -275 q1 -83 -13 -150.5t-43 -112.5h626v-106h-843v106h79q22 7 37.5 34.5t25 65t13.5 81t3 82.5l-8 275h-153z" />
<glyph unicode="&#xa4;" horiz-adv-x="1481" d="M109 62l158 160q-58 80 -90.5 177.5t-32.5 208.5q0 115 34.5 215.5t97.5 180.5l-167 171l85 89l167 -170q78 66 174 103t205 37t205 -37.5t174 -104.5l170 173l86 -90l-170 -174q60 -80 94.5 -179.5t34.5 -213.5q0 -110 -32 -206.5t-89 -175.5l162 -164l-86 -89l-158 160 q-78 -72 -178 -112.5t-213 -40.5t-213 40t-178 112l-155 -158zM257 608q0 -107 38 -201t104 -163.5t154 -110t187 -40.5t186.5 40.5t153 110t103.5 163.5t38 201q0 106 -38 199.5t-103.5 163t-153 109.5t-186.5 40t-187 -40t-154 -109.5t-104 -163t-38 -199.5z" />
<glyph unicode="&#xa5;" horiz-adv-x="1070" d="M55 1456h132l344 -709l344 709h133l-377 -749h301v-91h-345v-202h345v-90h-345v-324h-115v324h-342v90h342v202h-342v91h302z" />
<glyph unicode="&#xa6;" horiz-adv-x="444" d="M159 -270v772h120v-772h-120zM159 698v758h120v-758h-120z" />
<glyph unicode="&#xa7;" horiz-adv-x="1083" d="M104 -64l111 2q0 -94 28.5 -157t74 -101.5t101.5 -54.5t111 -16q69 0 122 19t89 52.5t55 79.5t19 100q0 52 -14 91.5t-49 72.5t-94.5 62t-149.5 59q-92 28 -166 61.5t-125.5 80.5t-79.5 111t-28 153q0 100 49 170t137 104q-72 48 -110.5 117t-38.5 177q0 81 28.5 147 t80.5 112.5t125.5 72t164.5 25.5q93 0 167.5 -28.5t126 -83t79 -135t27.5 -184.5h-111q0 67 -18.5 127t-55.5 104t-91 70t-124 26q-74 0 -128.5 -20t-89.5 -54t-52 -79.5t-17 -96.5q0 -56 13.5 -97t48 -74t94.5 -61.5t153 -60.5q94 -29 168 -61.5t125 -77.5t77.5 -107.5 t26.5 -151.5q0 -99 -51.5 -168.5t-142.5 -103.5q76 -47 116.5 -117.5t40.5 -179.5q0 -84 -28.5 -150.5t-80.5 -112.5t-125 -70t-163 -24q-79 0 -155.5 22t-136.5 72t-97 132.5t-37 204.5zM220 553q0 -58 14.5 -99.5t51.5 -74.5t101 -62.5t163 -63.5q29 -9 55 -18.5t51 -19.5 q47 7 84 26.5t62 47.5t38 63.5t13 75.5q0 54 -16 95t-54.5 75.5t-102 65t-158.5 63.5q-68 20 -121 43q-47 -8 -81 -27t-56 -47.5t-33 -65t-11 -77.5z" />
<glyph unicode="&#xa8;" horiz-adv-x="881" d="M143 1395q0 35 21.5 58.5t60.5 23.5q38 0 60.5 -23.5t22.5 -58.5q0 -34 -22.5 -57t-60.5 -23q-39 0 -60.5 23t-21.5 57zM580 1394q0 35 22 58.5t60 23.5q39 0 61 -23.5t22 -58.5q0 -34 -22 -57t-61 -23q-38 0 -60 23t-22 57z" />
<glyph unicode="&#xa9;" horiz-adv-x="1637" d="M107 729q0 106 25.5 202.5t71.5 179.5t111 150.5t144 115t169.5 73.5t188.5 26t188.5 -26t169 -73.5t143.5 -115t111 -150.5t71.5 -179.5t25.5 -202.5t-25.5 -202.5t-71.5 -180t-111 -151t-143.5 -116t-169 -74.5t-188.5 -26t-188.5 26t-169.5 74.5t-144 116t-111 151 t-71.5 180t-25.5 202.5zM192 729q0 -93 22.5 -178.5t63 -159t98 -133.5t127 -102.5t149 -66t165.5 -23.5q85 0 164.5 23.5t149 66t126.5 102.5t98 133.5t63.5 159t22.5 178.5q0 139 -49.5 259.5t-134.5 209t-198.5 139.5t-241.5 51q-86 0 -165.5 -23t-149 -65.5t-127 -102 t-98 -132.5t-63 -158t-22.5 -178zM474 679v98q0 86 23.5 157t67 122t105 79.5t137.5 28.5q72 0 130 -19.5t99.5 -58.5t63.5 -98t22 -137h-99q0 115 -55 168t-161 53q-57 0 -100.5 -22.5t-73 -62t-45 -93t-15.5 -116.5v-99q0 -63 15.5 -117t45 -93.5t73 -61.5t100.5 -22 q105 0 160 52t55 169h99q0 -79 -22 -138t-63 -98t-99 -58.5t-130 -19.5q-76 0 -137.5 28t-105 79t-67 122.5t-23.5 157.5z" />
<glyph unicode="&#xaa;" horiz-adv-x="802" d="M150 909q0 110 70 170.5t208 60.5h112v61q0 85 -31.5 131t-97.5 46q-72 0 -113.5 -35t-41.5 -107l-99 7q0 51 18 93.5t51.5 73.5t80.5 48.5t104 17.5q51 0 93 -17.5t72.5 -52t47 -86t16.5 -120.5v-314q0 -49 5.5 -93t16.5 -88h-102q-5 21 -9.5 44t-7.5 47 q-27 -42 -73.5 -73.5t-110.5 -31.5q-101 0 -155 59.5t-54 158.5zM250 913q0 -57 30.5 -91t98.5 -34q23 0 47 8.5t45.5 22t39 31.5t29.5 37v170h-111q-89 0 -134 -37.5t-45 -106.5z" />
<glyph unicode="&#xab;" horiz-adv-x="828" d="M120 528v19l248 379h93l-229 -389l229 -389h-93zM383 528v19l248 379h93l-229 -389l229 -389h-93z" />
<glyph unicode="&#xac;" horiz-adv-x="981" d="M124 668v109h686v-392h-112v283h-574z" />
<glyph unicode="&#xad;" horiz-adv-x="529" d="M59 590v103h404v-103h-404z" />
<glyph unicode="&#xae;" horiz-adv-x="1642" d="M102 729q0 106 25.5 202.5t71.5 179.5t111 150.5t144 115t169.5 73.5t188.5 26t188.5 -26t169.5 -73.5t144 -115t111 -150.5t71.5 -179.5t25.5 -202.5t-25.5 -202.5t-71.5 -180t-111 -151t-144 -116t-169.5 -74.5t-188.5 -26t-188.5 26t-169.5 74.5t-144 116t-111 151 t-71.5 180t-25.5 202.5zM187 729q0 -93 22.5 -178.5t63.5 -159t98 -133.5t126.5 -102.5t149 -66t165.5 -23.5t165.5 23.5t149 66t126.5 102.5t97.5 133.5t63 159t22.5 178.5t-22.5 178t-63 158t-97.5 132.5t-126.5 102t-149 65.5t-165.5 23t-165.5 -23t-149 -65.5 t-126.5 -102t-98 -132.5t-63.5 -158t-22.5 -178zM552 321v839h258q147 0 226 -61.5t79 -186.5q0 -68 -36.5 -117t-103.5 -80q36 -13 60 -33.5t39 -47t21.5 -58.5t6.5 -67v-45q0 -38 4 -71t13 -56v-16h-102q-5 13 -8 33t-4.5 41t-1.5 40v30v43q0 83 -37 120.5t-128 37.5h-188 v-345h-98zM650 758h181q37 0 71 10t59.5 29t40.5 47.5t15 65.5q0 42 -10.5 72t-34.5 49.5t-64 28.5t-98 9h-160v-311z" />
<glyph unicode="&#xaf;" horiz-adv-x="784" d="M111 1357v99h570v-99h-570z" />
<glyph unicode="&#xb0;" horiz-adv-x="774" d="M143 1226q0 51 19.5 96.5t53 79.5t78 54t94.5 20t94 -20t77 -54t52 -79.5t19 -96.5q0 -52 -19 -97t-52 -78.5t-77 -52.5t-94 -19t-94.5 19t-78 52.5t-53 78.5t-19.5 97zM233 1226q0 -33 12 -61.5t33 -49.5t49 -32.5t61 -11.5t61 11.5t48 32.5t31.5 49.5t11.5 61.5 q0 34 -11.5 63t-31.5 50t-48 33t-61 12t-61 -12t-49 -33t-33 -50t-12 -63z" />
<glyph unicode="&#xb1;" horiz-adv-x="954" d="M93 727v103h344v437h101v-437h325v-103h-325v-438h-101v438h-344zM129 0v104h701v-104h-701z" />
<glyph unicode="&#xb2;" horiz-adv-x="664" d="M82 1215q0 51 16.5 96.5t47.5 79.5t76 54t101 20q52 0 94.5 -15.5t72 -45t45.5 -71.5t16 -95q0 -38 -12 -74t-33 -71t-49.5 -70.5t-61.5 -72.5l-174 -196h362v-89h-484v76l242 283q61 71 87 121.5t26 91.5q0 62 -33 100t-96 38q-37 0 -64.5 -12t-45.5 -33.5t-27 -51 t-9 -63.5h-97z" />
<glyph unicode="&#xb3;" horiz-adv-x="664" d="M78 884h98q0 -31 11 -57t31 -45t48 -29.5t61 -10.5q70 0 108 38t38 104q0 76 -44.5 108.5t-118.5 32.5h-66v82h66q37 0 65 10.5t46.5 28.5t28 42.5t9.5 52.5t-8 52.5t-24.5 42.5t-42 28.5t-60.5 10.5q-29 0 -54.5 -9t-44 -26t-29 -41t-10.5 -54h-97q0 50 18.5 90.5 t50 69.5t74 44.5t91.5 15.5q52 0 95 -14.5t73.5 -43t47.5 -70t17 -94.5q0 -57 -31.5 -104t-90.5 -71q68 -21 101.5 -69t33.5 -119q0 -54 -18.5 -96t-51.5 -71t-78 -44t-97 -15q-46 0 -90 13.5t-78.5 42t-56 71.5t-21.5 103z" />
<glyph unicode="&#xb4;" horiz-adv-x="576" d="M124 1245l191 280h145l-231 -280h-105z" />
<glyph unicode="&#xb5;" horiz-adv-x="1001" d="M155 -416v1498h110v-632q0 -112 17.5 -183t46.5 -112t68 -56.5t82 -15.5q57 0 100 15.5t73.5 43.5t50.5 68t32 89v783h112v-1082h-97l-9 148q-38 -79 -101 -123.5t-154 -44.5q-69 0 -125.5 27.5t-95.5 93.5v-517h-110z" />
<glyph unicode="&#xb6;" horiz-adv-x="862" d="M87 988q0 100 27 186t79 148.5t129 98t178 35.5h198v-1456h-112v520h-86q-101 0 -178 35t-129 97.5t-79 148.5t-27 187z" />
<glyph unicode="&#xb7;" horiz-adv-x="467" d="M154 717q0 36 20 60.5t56 24.5t56.5 -24.5t20.5 -60.5q0 -35 -20.5 -58.5t-56.5 -23.5t-56 23.5t-20 58.5z" />
<glyph unicode="&#xb8;" horiz-adv-x="460" d="M105 -356q31 0 60.5 7t52.5 21t37 36.5t14 54.5q0 29 -9 48.5t-27 31.5t-45.5 18.5t-64.5 10.5l25 128h85l-10 -64q25 -4 49.5 -14.5t44 -30.5t31 -50.5t11.5 -75.5t-16.5 -81.5t-48 -63t-77.5 -41t-106 -14.5z" />
<glyph unicode="&#xb9;" horiz-adv-x="610" d="M125 1261v92l277 107h13v-790h-98v660z" />
<glyph unicode="&#xba;" horiz-adv-x="816" d="M131 1033v99q0 75 19 138t55 109t87 71.5t114 25.5q64 0 115 -25.5t86.5 -71.5t54.5 -109t19 -138v-99q0 -75 -19 -138t-54.5 -108.5t-86.5 -71t-114 -25.5q-64 0 -115 25.5t-87 71t-55 108.5t-19 138zM231 1033q0 -52 10.5 -97t32 -78t55 -52t78.5 -19q44 0 76.5 19 t54.5 52t32.5 78t10.5 97v99q0 51 -11 96t-32.5 78t-54.5 52.5t-77 19.5t-77 -19.5t-54.5 -52.5t-32.5 -78t-11 -96v-99z" />
<glyph unicode="&#xbb;" horiz-adv-x="824" d="M114 161l229 389l-229 394h95l248 -384v-19l-248 -380h-95zM387 161l229 389l-229 394h95l248 -384v-19l-248 -380h-95z" />
<glyph unicode="&#xbc;" horiz-adv-x="1289" d="M112 1255v92l277 107h13v-790h-98v660zM306 177l597 1138l67 -49l-598 -1138zM665 254l330 535h101v-513h104v-90h-104v-186h-96v186h-332zM767 276h233v376l-24 -45z" />
<glyph unicode="&#xbd;" horiz-adv-x="1347" d="M101 1255v92l277 107h13v-790h-98v660zM269 177l597 1138l67 -49l-598 -1138zM732 550q0 51 16.5 96.5t47.5 79.5t76 54t101 20q52 0 94.5 -15.5t72 -45t45.5 -71.5t16 -95q0 -38 -12 -74t-33 -71t-49.5 -70.5t-61.5 -72.5l-174 -196h362v-89h-484v76l242 283 q61 71 87 121.5t26 91.5q0 62 -33 100t-96 38q-37 0 -64.5 -12t-45.5 -33.5t-27 -51t-9 -63.5h-97z" />
<glyph unicode="&#xbe;" horiz-adv-x="1376" d="M118 884h98q0 -31 11 -57t31 -45t48 -29.5t61 -10.5q70 0 108 38t38 104q0 76 -44.5 108.5t-118.5 32.5h-66v82h66q37 0 65 10.5t46.5 28.5t28 42.5t9.5 52.5t-8 52.5t-24.5 42.5t-42 28.5t-60.5 10.5q-29 0 -54.5 -9t-44 -26t-29 -41t-10.5 -54h-97q0 50 18.5 90.5 t50 69.5t74 44.5t91.5 15.5q52 0 95 -14.5t73.5 -43t47.5 -70t17 -94.5q0 -57 -31.5 -104t-90.5 -71q68 -21 101.5 -69t33.5 -119q0 -54 -18.5 -96t-51.5 -71t-78 -44t-97 -15q-46 0 -90 13.5t-78.5 42t-56 71.5t-21.5 103zM424 177l597 1138l67 -49l-598 -1138zM757 254 l330 535h101v-513h104v-90h-104v-186h-96v186h-332zM859 276h233v376l-24 -45z" />
<glyph unicode="&#xbf;" horiz-adv-x="834" d="M91 -10q0 72 17 133t45.5 115t66 103t79.5 96q26 27 41.5 54.5t23.5 57.5t10.5 64t2.5 74h112q-1 -64 -6.5 -108t-20 -80t-38.5 -70.5t-62 -79.5q-32 -39 -61 -75.5t-51.5 -77.5t-35.5 -90.5t-13 -113.5q0 -128 55 -197t159 -69q46 0 85.5 17.5t68 50t45 79.5t16.5 107 h111q-1 -88 -26 -156t-69 -114t-103 -69.5t-128 -23.5q-77 0 -137 26t-101.5 74.5t-63.5 117.5t-22 155zM354 1021q0 34 19.5 57t54.5 23t54 -23t19 -57q0 -35 -19 -58.5t-54 -23.5t-54.5 23.5t-19.5 58.5z" />
<glyph unicode="&#xc0;" horiz-adv-x="1123" d="M45 0l464 1456h106l464 -1456h-119l-126 407h-546l-124 -407h-119zM303 1840h144l191 -280h-109zM321 514h480l-240 781z" />
<glyph unicode="&#xc1;" horiz-adv-x="1123" d="M45 0l464 1456h106l464 -1456h-119l-126 407h-546l-124 -407h-119zM321 514h480l-240 781zM493 1560l191 280h145l-231 -280h-105z" />
<glyph unicode="&#xc2;" horiz-adv-x="1123" d="M45 0l464 1456h106l464 -1456h-119l-126 407h-546l-124 -407h-119zM321 514h480l-240 781zM328 1573v12l201 256h69l204 -258v-10h-100l-138 182l-138 -182h-98z" />
<glyph unicode="&#xc3;" horiz-adv-x="1123" d="M45 0l464 1456h106l464 -1456h-119l-126 407h-546l-124 -407h-119zM282 1590q0 48 12.5 87.5t35 67.5t53 43.5t65.5 15.5q39 0 67.5 -17t54 -37.5t51 -37.5t60.5 -17q38 0 64.5 33t26.5 88l80 -6q0 -48 -13 -88t-35.5 -68t-52.5 -43.5t-65 -15.5q-44 0 -72.5 17t-52 38 t-48 38t-60.5 17q-38 0 -64 -31.5t-26 -86.5zM321 514h480l-240 781z" />
<glyph unicode="&#xc4;" horiz-adv-x="1123" d="M45 0l464 1456h106l464 -1456h-119l-126 407h-546l-124 -407h-119zM271 1710q0 35 21.5 58.5t60.5 23.5q38 0 60.5 -23.5t22.5 -58.5q0 -34 -22.5 -57t-60.5 -23q-39 0 -60.5 23t-21.5 57zM321 514h480l-240 781zM708 1709q0 35 22 58.5t60 23.5q39 0 61 -23.5t22 -58.5 q0 -34 -22 -57t-61 -23q-38 0 -60 23t-22 57z" />
<glyph unicode="&#xc5;" horiz-adv-x="1123" d="M45 0l464 1456h106l464 -1456h-119l-126 407h-546l-124 -407h-119zM321 514h480l-240 781zM372 1716q0 40 15 75t41 61t61 41t76 15q40 0 75.5 -15t61.5 -41t41 -61t15 -75t-15 -74.5t-41 -59.5t-61.5 -39t-75.5 -14q-41 0 -76 14t-61 39t-41 59.5t-15 74.5zM449 1716 q0 -24 8.5 -45t24 -36.5t36.5 -24.5t47 -9q25 0 46.5 9t37.5 24.5t24.5 36.5t8.5 45q0 25 -8.5 47t-24.5 38t-37.5 25t-46.5 9q-26 0 -47 -9t-36.5 -25t-24 -38t-8.5 -47z" />
<glyph unicode="&#xc6;" horiz-adv-x="1614" d="M29 0l740 1456h740v-104h-583l19 -542h495v-104h-491l21 -603h590v-103h-697l-14 388h-493l-191 -388h-136zM412 503h433l-29 821z" />
<glyph unicode="&#xc7;" horiz-adv-x="1158" d="M136 576v313q0 137 32 246t92 184.5t146 116t195 40.5q99 0 177.5 -28t135.5 -86t90 -148t41 -214h-116q-8 100 -31 170t-63.5 114t-98.5 64t-135 20q-85 0 -150 -32.5t-109.5 -93.5t-67 -150t-22.5 -201v-315q0 -111 21.5 -201.5t64 -154.5t106 -99t148.5 -35 q80 0 140 18.5t101 61.5t64.5 113.5t31.5 174.5h116q-16 -245 -132 -359.5t-321 -114.5q-105 0 -189.5 41t-143.5 118t-91 187.5t-32 249.5zM508 -365q31 0 60.5 7t52.5 21t37 36.5t14 54.5q0 29 -9 48.5t-27 31.5t-45.5 18.5t-64.5 10.5l25 128h85l-10 -64 q25 -4 49.5 -14.5t44 -30.5t31 -50.5t11.5 -75.5t-16.5 -81.5t-48 -63t-77.5 -41t-106 -14.5z" />
<glyph unicode="&#xc8;" horiz-adv-x="1018" d="M172 0v1456h759v-108h-645v-545h565v-106h-565v-591h650v-106h-764zM279 1846h144l191 -280h-109z" />
<glyph unicode="&#xc9;" horiz-adv-x="1018" d="M172 0v1456h759v-108h-645v-545h565v-106h-565v-591h650v-106h-764zM469 1566l191 280h145l-231 -280h-105z" />
<glyph unicode="&#xca;" horiz-adv-x="1018" d="M172 0v1456h759v-108h-645v-545h565v-106h-565v-591h650v-106h-764zM304 1579v12l201 256h69l204 -258v-10h-100l-138 182l-138 -182h-98z" />
<glyph unicode="&#xcb;" horiz-adv-x="1018" d="M172 0v1456h759v-108h-645v-545h565v-106h-565v-591h650v-106h-764zM247 1716q0 35 21.5 58.5t60.5 23.5q38 0 60.5 -23.5t22.5 -58.5q0 -34 -22.5 -57t-60.5 -23q-39 0 -60.5 23t-21.5 57zM684 1715q0 35 22 58.5t60 23.5q39 0 61 -23.5t22 -58.5q0 -34 -22 -57t-61 -23 q-38 0 -60 23t-22 57z" />
<glyph unicode="&#xcc;" horiz-adv-x="500" d="M-10 1846h144l191 -280h-109zM193 0v1456h114v-1456h-114z" />
<glyph unicode="&#xcd;" horiz-adv-x="500" d="M179 1566l191 280h145l-231 -280h-105zM193 0v1456h114v-1456h-114z" />
<glyph unicode="&#xce;" horiz-adv-x="500" d="M15 1579v12l201 256h69l204 -258v-10h-100l-138 182l-138 -182h-98zM193 0v1456h114v-1456h-114z" />
<glyph unicode="&#xcf;" horiz-adv-x="500" d="M-42 1716q0 35 21.5 58.5t60.5 23.5q38 0 60.5 -23.5t22.5 -58.5q0 -34 -22.5 -57t-60.5 -23q-39 0 -60.5 23t-21.5 57zM193 0v1456h114v-1456h-114zM395 1715q0 35 22 58.5t60 23.5q39 0 61 -23.5t22 -58.5q0 -34 -22 -57t-61 -23q-38 0 -60 23t-22 57z" />
<glyph unicode="&#xd0;" horiz-adv-x="1197" d="M74 689v104h128v663h343q115 0 210.5 -38t163.5 -112t105.5 -183t37.5 -250v-291q0 -141 -37.5 -250t-106 -182.5t-165.5 -111.5t-216 -38h-335v689h-128zM316 106h221q98 0 174.5 31t129.5 91.5t80.5 149.5t27.5 204v294q0 117 -28 205t-80 147.5t-127 89.5t-169 30 h-229v-555h276v-104h-276v-583z" />
<glyph unicode="&#xd1;" horiz-adv-x="1262" d="M172 0v1456h115l688 -1242v1242h113v-1456h-114l-687 1240v-1240h-115zM348 1590q0 48 12.5 87.5t35 67.5t53 43.5t65.5 15.5q39 0 67.5 -17t54 -37.5t51 -37.5t60.5 -17q38 0 64.5 33t26.5 88l80 -6q0 -48 -13 -88t-35.5 -68t-52.5 -43.5t-65 -15.5q-44 0 -72.5 17 t-52 38t-48 38t-60.5 17q-38 0 -64 -31.5t-26 -86.5z" />
<glyph unicode="&#xd2;" horiz-adv-x="1208" d="M132 570v314q0 144 33 254.5t94.5 185.5t148.5 113.5t195 38.5q109 0 196.5 -38.5t148.5 -113.5t94 -185.5t33 -254.5v-314q0 -144 -32.5 -254.5t-93.5 -185t-148 -112.5t-196 -38q-108 0 -195 38t-149 112.5t-95.5 185t-33.5 254.5zM246 570q0 -240 95 -360.5 t264 -120.5q174 0 264.5 120t90.5 361v316q0 239 -92 359t-265 120q-169 0 -263 -120t-94 -359v-316zM342 1851h144l191 -280h-109z" />
<glyph unicode="&#xd3;" horiz-adv-x="1208" d="M132 570v314q0 144 33 254.5t94.5 185.5t148.5 113.5t195 38.5q109 0 196.5 -38.5t148.5 -113.5t94 -185.5t33 -254.5v-314q0 -144 -32.5 -254.5t-93.5 -185t-148 -112.5t-196 -38q-108 0 -195 38t-149 112.5t-95.5 185t-33.5 254.5zM246 570q0 -240 95 -360.5 t264 -120.5q174 0 264.5 120t90.5 361v316q0 239 -92 359t-265 120q-169 0 -263 -120t-94 -359v-316zM532 1571l191 280h145l-231 -280h-105z" />
<glyph unicode="&#xd4;" horiz-adv-x="1208" d="M132 570v314q0 144 33 254.5t94.5 185.5t148.5 113.5t195 38.5q109 0 196.5 -38.5t148.5 -113.5t94 -185.5t33 -254.5v-314q0 -144 -32.5 -254.5t-93.5 -185t-148 -112.5t-196 -38q-108 0 -195 38t-149 112.5t-95.5 185t-33.5 254.5zM246 570q0 -240 95 -360.5 t264 -120.5q174 0 264.5 120t90.5 361v316q0 239 -92 359t-265 120q-169 0 -263 -120t-94 -359v-316zM367 1584v12l201 256h69l204 -258v-10h-100l-138 182l-138 -182h-98z" />
<glyph unicode="&#xd5;" horiz-adv-x="1208" d="M132 570v314q0 144 33 254.5t94.5 185.5t148.5 113.5t195 38.5q109 0 196.5 -38.5t148.5 -113.5t94 -185.5t33 -254.5v-314q0 -144 -32.5 -254.5t-93.5 -185t-148 -112.5t-196 -38q-108 0 -195 38t-149 112.5t-95.5 185t-33.5 254.5zM246 570q0 -240 95 -360.5 t264 -120.5q174 0 264.5 120t90.5 361v316q0 239 -92 359t-265 120q-169 0 -263 -120t-94 -359v-316zM321 1601q0 48 12.5 87.5t35 67.5t53 43.5t65.5 15.5q39 0 67.5 -17t54 -37.5t51 -37.5t60.5 -17q38 0 64.5 33t26.5 88l80 -6q0 -48 -13 -88t-35.5 -68t-52.5 -43.5 t-65 -15.5q-44 0 -72.5 17t-52 38t-48 38t-60.5 17q-38 0 -64 -31.5t-26 -86.5z" />
<glyph unicode="&#xd6;" horiz-adv-x="1208" d="M132 570v314q0 144 33 254.5t94.5 185.5t148.5 113.5t195 38.5q109 0 196.5 -38.5t148.5 -113.5t94 -185.5t33 -254.5v-314q0 -144 -32.5 -254.5t-93.5 -185t-148 -112.5t-196 -38q-108 0 -195 38t-149 112.5t-95.5 185t-33.5 254.5zM246 570q0 -240 95 -360.5 t264 -120.5q174 0 264.5 120t90.5 361v316q0 239 -92 359t-265 120q-169 0 -263 -120t-94 -359v-316zM310 1721q0 35 21.5 58.5t60.5 23.5q38 0 60.5 -23.5t22.5 -58.5q0 -34 -22.5 -57t-60.5 -23q-39 0 -60.5 23t-21.5 57zM747 1720q0 35 22 58.5t60 23.5q39 0 61 -23.5 t22 -58.5q0 -34 -22 -57t-61 -23q-38 0 -60 23t-22 57z" />
<glyph unicode="&#xd7;" horiz-adv-x="944" d="M97 185l299 363l-288 350l73 82l285 -347l286 347l72 -82l-288 -350l299 -363l-73 -81l-296 359l-296 -359z" />
<glyph unicode="&#xd8;" horiz-adv-x="1208" d="M132 570v314q0 144 33 254.5t94.5 185.5t148.5 113.5t195 38.5q98 0 178.5 -31t140.5 -92l81 153h94l-119 -224q48 -74 72.5 -173.5t24.5 -224.5v-314q0 -144 -32.5 -254.5t-93.5 -185t-148 -112.5t-196 -38q-160 0 -272 82l-77 -146h-93l107 203q-66 75 -102 187.5 t-36 263.5zM246 570q0 -221 82 -342l538 1019q-91 118 -263 118q-169 0 -263 -120t-94 -359v-316zM386 162q86 -73 219 -73q174 0 264.5 120t90.5 361v316q0 84 -11.5 152.5t-33.5 122.5z" />
<glyph unicode="&#xd9;" horiz-adv-x="1168" d="M152 429v1027h114v-1027q0 -95 23.5 -160.5t66 -106t101 -58.5t128.5 -18t128.5 18t100.5 58.5t65.5 106t23.5 160.5v1027h115v-1027q0 -123 -34.5 -208.5t-93.5 -139t-137.5 -77.5t-167.5 -24q-92 0 -171 24t-137.5 77.5t-91.5 139t-33 208.5zM329 1840h144l191 -280 h-109z" />
<glyph unicode="&#xda;" horiz-adv-x="1168" d="M152 429v1027h114v-1027q0 -95 23.5 -160.5t66 -106t101 -58.5t128.5 -18t128.5 18t100.5 58.5t65.5 106t23.5 160.5v1027h115v-1027q0 -123 -34.5 -208.5t-93.5 -139t-137.5 -77.5t-167.5 -24q-92 0 -171 24t-137.5 77.5t-91.5 139t-33 208.5zM519 1560l191 280h145 l-231 -280h-105z" />
<glyph unicode="&#xdb;" horiz-adv-x="1168" d="M152 429v1027h114v-1027q0 -95 23.5 -160.5t66 -106t101 -58.5t128.5 -18t128.5 18t100.5 58.5t65.5 106t23.5 160.5v1027h115v-1027q0 -123 -34.5 -208.5t-93.5 -139t-137.5 -77.5t-167.5 -24q-92 0 -171 24t-137.5 77.5t-91.5 139t-33 208.5zM354 1573v12l201 256h69 l204 -258v-10h-100l-138 182l-138 -182h-98z" />
<glyph unicode="&#xdc;" horiz-adv-x="1168" d="M152 429v1027h114v-1027q0 -95 23.5 -160.5t66 -106t101 -58.5t128.5 -18t128.5 18t100.5 58.5t65.5 106t23.5 160.5v1027h115v-1027q0 -123 -34.5 -208.5t-93.5 -139t-137.5 -77.5t-167.5 -24q-92 0 -171 24t-137.5 77.5t-91.5 139t-33 208.5zM297 1710q0 35 21.5 58.5 t60.5 23.5q38 0 60.5 -23.5t22.5 -58.5q0 -34 -22.5 -57t-60.5 -23q-39 0 -60.5 23t-21.5 57zM734 1709q0 35 22 58.5t60 23.5q39 0 61 -23.5t22 -58.5q0 -34 -22 -57t-61 -23q-38 0 -60 23t-22 57z" />
<glyph unicode="&#xdd;" horiz-adv-x="1070" d="M39 1456h134l361 -792l363 792h131l-438 -908v-548h-114v548zM464 1554l191 280h145l-231 -280h-105z" />
<glyph unicode="&#xde;" horiz-adv-x="1059" d="M171 0v1456h111v-303h265q96 0 170 -31.5t124.5 -87t76.5 -131.5t26 -165q0 -90 -26 -166t-76.5 -131.5t-124.5 -86.5t-170 -31h-265v-323h-111zM282 427h265q76 0 130.5 27t89 71t50.5 99.5t16 111.5q0 58 -16 114.5t-50.5 100.5t-89 71t-130.5 27h-265v-622z" />
<glyph unicode="&#xdf;" horiz-adv-x="1051" d="M145 0v1127q0 102 21.5 180t61.5 130.5t97 79.5t128 27q61 0 114.5 -20t93.5 -59t63 -96.5t23 -132.5q0 -51 -7.5 -89t-19.5 -69.5t-25 -59t-25 -56.5t-19.5 -62t-7.5 -76q0 -49 22.5 -88t56 -74.5t73 -70.5t73 -76t56 -91.5t22.5 -116.5q0 -81 -26 -142t-70 -102.5 t-101 -62t-120 -20.5q-36 0 -74 6.5t-73 17.5t-64 25.5t-45 30.5l30 103q15 -14 38.5 -28t52 -26t60 -19.5t62.5 -7.5q53 0 94 18t68.5 48.5t42 71t14.5 86.5q0 52 -22.5 93t-56 77.5t-73 71t-73 75t-56 89.5t-22.5 114q0 68 17 116.5t37 91t37 88t17 107.5q0 48 -14.5 87.5 t-38.5 67t-56.5 42.5t-68.5 15q-48 0 -86 -18t-65 -56t-41 -97.5t-14 -142.5v-1127h-111z" />
<glyph unicode="&#xe0;" horiz-adv-x="964" d="M105 284q0 75 26 138.5t77.5 109.5t128.5 72t179 26h183v151q0 116 -57.5 166.5t-168.5 50.5q-52 0 -95.5 -16t-74.5 -44.5t-48 -68t-17 -86.5l-111 1q0 63 25 120.5t71 101.5t111 70t144 26q73 0 133.5 -17.5t104.5 -56t68.5 -100t24.5 -149.5v-552q0 -28 2 -58 t5.5 -58.5t9 -54t12.5 -44.5v-12h-118q-8 27 -13 67.5t-7 82.5q-21 -34 -50 -64.5t-66.5 -54t-83.5 -37.5t-99 -14q-67 0 -121.5 19t-93.5 57t-60 95t-21 133zM217 293q0 -107 52.5 -156.5t145.5 -49.5q52 0 97.5 14.5t81.5 40t62.5 59.5t42.5 73v263h-167q-157 0 -236 -66 t-79 -178zM246 1525h144l191 -280h-109z" />
<glyph unicode="&#xe1;" horiz-adv-x="964" d="M105 284q0 75 26 138.5t77.5 109.5t128.5 72t179 26h183v151q0 116 -57.5 166.5t-168.5 50.5q-52 0 -95.5 -16t-74.5 -44.5t-48 -68t-17 -86.5l-111 1q0 63 25 120.5t71 101.5t111 70t144 26q73 0 133.5 -17.5t104.5 -56t68.5 -100t24.5 -149.5v-552q0 -28 2 -58 t5.5 -58.5t9 -54t12.5 -44.5v-12h-118q-8 27 -13 67.5t-7 82.5q-21 -34 -50 -64.5t-66.5 -54t-83.5 -37.5t-99 -14q-67 0 -121.5 19t-93.5 57t-60 95t-21 133zM217 293q0 -107 52.5 -156.5t145.5 -49.5q52 0 97.5 14.5t81.5 40t62.5 59.5t42.5 73v263h-167q-157 0 -236 -66 t-79 -178zM436 1245l191 280h145l-231 -280h-105z" />
<glyph unicode="&#xe2;" horiz-adv-x="964" d="M105 284q0 75 26 138.5t77.5 109.5t128.5 72t179 26h183v151q0 116 -57.5 166.5t-168.5 50.5q-52 0 -95.5 -16t-74.5 -44.5t-48 -68t-17 -86.5l-111 1q0 63 25 120.5t71 101.5t111 70t144 26q73 0 133.5 -17.5t104.5 -56t68.5 -100t24.5 -149.5v-552q0 -28 2 -58 t5.5 -58.5t9 -54t12.5 -44.5v-12h-118q-8 27 -13 67.5t-7 82.5q-21 -34 -50 -64.5t-66.5 -54t-83.5 -37.5t-99 -14q-67 0 -121.5 19t-93.5 57t-60 95t-21 133zM217 293q0 -107 52.5 -156.5t145.5 -49.5q52 0 97.5 14.5t81.5 40t62.5 59.5t42.5 73v263h-167q-157 0 -236 -66 t-79 -178zM271 1258v12l201 256h69l204 -258v-10h-100l-138 182l-138 -182h-98z" />
<glyph unicode="&#xe3;" horiz-adv-x="964" d="M105 284q0 75 26 138.5t77.5 109.5t128.5 72t179 26h183v151q0 116 -57.5 166.5t-168.5 50.5q-52 0 -95.5 -16t-74.5 -44.5t-48 -68t-17 -86.5l-111 1q0 63 25 120.5t71 101.5t111 70t144 26q73 0 133.5 -17.5t104.5 -56t68.5 -100t24.5 -149.5v-552q0 -28 2 -58 t5.5 -58.5t9 -54t12.5 -44.5v-12h-118q-8 27 -13 67.5t-7 82.5q-21 -34 -50 -64.5t-66.5 -54t-83.5 -37.5t-99 -14q-67 0 -121.5 19t-93.5 57t-60 95t-21 133zM217 293q0 -107 52.5 -156.5t145.5 -49.5q52 0 97.5 14.5t81.5 40t62.5 59.5t42.5 73v263h-167q-157 0 -236 -66 t-79 -178zM225 1275q0 48 12.5 87.5t35 67.5t53 43.5t65.5 15.5q39 0 67.5 -17t54 -37.5t51 -37.5t60.5 -17q38 0 64.5 33t26.5 88l80 -6q0 -48 -13 -88t-35.5 -68t-52.5 -43.5t-65 -15.5q-44 0 -72.5 17t-52 38t-48 38t-60.5 17q-38 0 -64 -31.5t-26 -86.5z" />
<glyph unicode="&#xe4;" horiz-adv-x="964" d="M105 284q0 75 26 138.5t77.5 109.5t128.5 72t179 26h183v151q0 116 -57.5 166.5t-168.5 50.5q-52 0 -95.5 -16t-74.5 -44.5t-48 -68t-17 -86.5l-111 1q0 63 25 120.5t71 101.5t111 70t144 26q73 0 133.5 -17.5t104.5 -56t68.5 -100t24.5 -149.5v-552q0 -28 2 -58 t5.5 -58.5t9 -54t12.5 -44.5v-12h-118q-8 27 -13 67.5t-7 82.5q-21 -34 -50 -64.5t-66.5 -54t-83.5 -37.5t-99 -14q-67 0 -121.5 19t-93.5 57t-60 95t-21 133zM214 1395q0 35 21.5 58.5t60.5 23.5q38 0 60.5 -23.5t22.5 -58.5q0 -34 -22.5 -57t-60.5 -23q-39 0 -60.5 23 t-21.5 57zM217 293q0 -107 52.5 -156.5t145.5 -49.5q52 0 97.5 14.5t81.5 40t62.5 59.5t42.5 73v263h-167q-157 0 -236 -66t-79 -178zM651 1394q0 35 22 58.5t60 23.5q39 0 61 -23.5t22 -58.5q0 -34 -22 -57t-61 -23q-38 0 -60 23t-22 57z" />
<glyph unicode="&#xe5;" horiz-adv-x="964" d="M105 284q0 75 26 138.5t77.5 109.5t128.5 72t179 26h183v151q0 116 -57.5 166.5t-168.5 50.5q-52 0 -95.5 -16t-74.5 -44.5t-48 -68t-17 -86.5l-111 1q0 63 25 120.5t71 101.5t111 70t144 26q73 0 133.5 -17.5t104.5 -56t68.5 -100t24.5 -149.5v-552q0 -28 2 -58 t5.5 -58.5t9 -54t12.5 -44.5v-12h-118q-8 27 -13 67.5t-7 82.5q-21 -34 -50 -64.5t-66.5 -54t-83.5 -37.5t-99 -14q-67 0 -121.5 19t-93.5 57t-60 95t-21 133zM217 293q0 -107 52.5 -156.5t145.5 -49.5q52 0 97.5 14.5t81.5 40t62.5 59.5t42.5 73v263h-167q-157 0 -236 -66 t-79 -178zM315 1401q0 40 15 75t41 61t61 41t76 15q40 0 75.5 -15t61.5 -41t41 -61t15 -75t-15 -74.5t-41 -59.5t-61.5 -39t-75.5 -14q-41 0 -76 14t-61 39t-41 59.5t-15 74.5zM392 1401q0 -24 8.5 -45t24 -36.5t36.5 -24.5t47 -9q25 0 46.5 9t37.5 24.5t24.5 36.5t8.5 45 q0 25 -8.5 47t-24.5 38t-37.5 25t-46.5 9q-26 0 -47 -9t-36.5 -25t-24 -38t-8.5 -47z" />
<glyph unicode="&#xe6;" horiz-adv-x="1494" d="M90 294q0 78 23.5 140.5t70 106.5t116 67.5t160.5 23.5h211v88q0 131 -51.5 204.5t-154.5 73.5q-56 0 -101 -18t-76 -49.5t-47.5 -74t-16.5 -91.5l-110 13q0 70 25 129.5t71 102.5t110.5 67.5t144.5 24.5q103 0 177.5 -51t109.5 -153q51 96 129 150t174 54 q86 0 152.5 -32.5t112.5 -92.5t69.5 -146t23.5 -194v-101h-631v-26q0 -89 17.5 -167t54 -135.5t93 -91t135.5 -33.5q48 0 87.5 10t73 26.5t60.5 37.5t50 44l42 -90q-17 -20 -44 -43t-65.5 -42.5t-89 -32.5t-114.5 -13q-116 0 -200 53.5t-135 148.5q-19 -36 -50.5 -72.5 t-76.5 -65t-102.5 -46.5t-129.5 -18t-127.5 22t-93.5 63t-57.5 99t-19.5 130zM202 290q0 -93 51 -150.5t153 -57.5q41 0 81.5 13.5t75.5 35t63 48t45 53.5v302h-209q-66 0 -114.5 -20t-81 -53.5t-48.5 -77.5t-16 -93zM785 636h518v31q0 69 -14.5 129t-45 105t-77.5 71 t-111 26q-58 0 -105 -27.5t-81.5 -76.5t-55.5 -115t-28 -143z" />
<glyph unicode="&#xe7;" horiz-adv-x="929" d="M98 480v122q0 248 98.5 374t292.5 126q74 0 137.5 -23.5t110 -71t74.5 -120t31 -170.5h-107q-3 75 -23 128.5t-52.5 87.5t-76 49.5t-94.5 15.5q-77 0 -130 -26.5t-86 -77.5t-48 -124.5t-15 -167.5v-122q0 -95 14.5 -169t47.5 -124.5t86.5 -77t131.5 -26.5q46 0 89 12 t76.5 41t55 77.5t24.5 121.5h107q-4 -87 -33 -153.5t-77 -111t-110 -67.5t-132 -23q-195 0 -293.5 126t-98.5 374zM389 -365q31 0 60.5 7t52.5 21t37 36.5t14 54.5q0 29 -9 48.5t-27 31.5t-45.5 18.5t-64.5 10.5l25 128h85l-10 -64q25 -4 49.5 -14.5t44 -30.5t31 -50.5 t11.5 -75.5t-16.5 -81.5t-48 -63t-77.5 -41t-106 -14.5z" />
<glyph unicode="&#xe8;" horiz-adv-x="937" d="M96 470v123q0 136 32 232.5t85.5 158t124 90t148.5 28.5q178 0 270.5 -117.5t92.5 -359.5v-94h-643v-61q0 -99 22 -172t62 -121t96 -71.5t124 -23.5q84 0 146 28.5t113 88.5l58 -74q-22 -30 -51.5 -56t-69 -46t-89.5 -31.5t-112 -11.5q-90 0 -165 29.5t-129.5 90 t-84.5 152.5t-30 218zM207 635h531v29q-2 79 -18 141t-46.5 105t-77.5 65.5t-110 22.5q-59 0 -108.5 -20t-86 -63.5t-58.5 -112.5t-26 -167zM234 1525h144l191 -280h-109z" />
<glyph unicode="&#xe9;" horiz-adv-x="937" d="M96 470v123q0 136 32 232.5t85.5 158t124 90t148.5 28.5q178 0 270.5 -117.5t92.5 -359.5v-94h-643v-61q0 -99 22 -172t62 -121t96 -71.5t124 -23.5q84 0 146 28.5t113 88.5l58 -74q-22 -30 -51.5 -56t-69 -46t-89.5 -31.5t-112 -11.5q-90 0 -165 29.5t-129.5 90 t-84.5 152.5t-30 218zM207 635h531v29q-2 79 -18 141t-46.5 105t-77.5 65.5t-110 22.5q-59 0 -108.5 -20t-86 -63.5t-58.5 -112.5t-26 -167zM424 1245l191 280h145l-231 -280h-105z" />
<glyph unicode="&#xea;" horiz-adv-x="937" d="M96 470v123q0 136 32 232.5t85.5 158t124 90t148.5 28.5q178 0 270.5 -117.5t92.5 -359.5v-94h-643v-61q0 -99 22 -172t62 -121t96 -71.5t124 -23.5q84 0 146 28.5t113 88.5l58 -74q-22 -30 -51.5 -56t-69 -46t-89.5 -31.5t-112 -11.5q-90 0 -165 29.5t-129.5 90 t-84.5 152.5t-30 218zM207 635h531v29q-2 79 -18 141t-46.5 105t-77.5 65.5t-110 22.5q-59 0 -108.5 -20t-86 -63.5t-58.5 -112.5t-26 -167zM259 1258v12l201 256h69l204 -258v-10h-100l-138 182l-138 -182h-98z" />
<glyph unicode="&#xeb;" horiz-adv-x="937" d="M96 470v123q0 136 32 232.5t85.5 158t124 90t148.5 28.5q178 0 270.5 -117.5t92.5 -359.5v-94h-643v-61q0 -99 22 -172t62 -121t96 -71.5t124 -23.5q84 0 146 28.5t113 88.5l58 -74q-22 -30 -51.5 -56t-69 -46t-89.5 -31.5t-112 -11.5q-90 0 -165 29.5t-129.5 90 t-84.5 152.5t-30 218zM202 1395q0 35 21.5 58.5t60.5 23.5q38 0 60.5 -23.5t22.5 -58.5q0 -34 -22.5 -57t-60.5 -23q-39 0 -60.5 23t-21.5 57zM207 635h531v29q-2 79 -18 141t-46.5 105t-77.5 65.5t-110 22.5q-59 0 -108.5 -20t-86 -63.5t-58.5 -112.5t-26 -167zM639 1394 q0 35 22 58.5t60 23.5q39 0 61 -23.5t22 -58.5q0 -34 -22 -57t-61 -23q-38 0 -60 23t-22 57z" />
<glyph unicode="&#xec;" horiz-adv-x="431" d="M-43 1513h144l191 -280h-109zM159 0v1082h111v-1082h-111z" />
<glyph unicode="&#xed;" horiz-adv-x="431" d="M146 1233l191 280h145l-231 -280h-105zM159 0v1082h111v-1082h-111z" />
<glyph unicode="&#xee;" horiz-adv-x="431" d="M-18 1246v12l201 256h69l204 -258v-10h-100l-138 182l-138 -182h-98zM159 0v1082h111v-1082h-111z" />
<glyph unicode="&#xef;" horiz-adv-x="431" d="M-75 1383q0 35 21.5 58.5t60.5 23.5q38 0 60.5 -23.5t22.5 -58.5q0 -34 -22.5 -57t-60.5 -23q-39 0 -60.5 23t-21.5 57zM159 0v1082h111v-1082h-111zM362 1382q0 35 22 58.5t60 23.5q39 0 61 -23.5t22 -58.5q0 -34 -22 -57t-61 -23q-38 0 -60 23t-22 57z" />
<glyph unicode="&#xf0;" horiz-adv-x="1042" d="M141 466q0 116 27 208.5t75.5 157t116.5 99t151 34.5q81 0 151.5 -37t119.5 -100q-20 132 -64.5 232.5t-108.5 176.5l-188 -138l-46 74l173 128q-63 57 -135 99t-151 72l36 106q202 -71 343 -209l163 120l46 -75l-151 -111q101 -125 155 -293.5t54 -385.5v-89 q0 -123 -28 -225.5t-77.5 -175.5t-118.5 -113.5t-150 -40.5q-87 0 -159 37.5t-124 103.5t-81 154.5t-29 190.5zM253 466q0 -71 18.5 -139.5t55 -122t89.5 -86.5t122 -33q60 0 108 34t81.5 94t51.5 142.5t18 179.5v91q0 15 -0.5 30t-1.5 30q-14 33 -36.5 64t-55.5 55 t-75.5 39t-94.5 15q-70 0 -122.5 -29t-87.5 -81t-52.5 -124.5t-17.5 -158.5z" />
<glyph unicode="&#xf1;" horiz-adv-x="986" d="M148 0v1082h106l3 -172q48 88 122.5 140t169.5 52q68 0 121.5 -22t91 -70t57.5 -123.5t20 -182.5v-704h-110v705q0 83 -14.5 139t-41.5 89.5t-65.5 48t-86.5 14.5q-50 0 -91.5 -20.5t-74.5 -54.5t-57 -78t-39 -92v-751h-111zM221 1274q0 48 12.5 87.5t35 67.5t53 43.5 t65.5 15.5q39 0 67.5 -17t54 -37.5t51 -37.5t60.5 -17q38 0 64.5 33t26.5 88l80 -6q0 -48 -13 -88t-35.5 -68t-52.5 -43.5t-65 -15.5q-44 0 -72.5 17t-52 38t-48 38t-60.5 17q-38 0 -64 -31.5t-26 -86.5z" />
<glyph unicode="&#xf2;" horiz-adv-x="1005" d="M106 484v112q0 123 29 217t81 158.5t124.5 97.5t160.5 33q89 0 162 -33t125 -97.5t80.5 -158.5t28.5 -217v-112q0 -123 -28.5 -217t-80.5 -157.5t-124.5 -96.5t-160.5 -33q-89 0 -162 33t-125 96.5t-81 157.5t-29 217zM218 484q0 -93 19 -167t55.5 -126t89.5 -80t121 -28 q72 0 125 28t88 80t52.5 126t17.5 167v112q0 91 -19 165.5t-55.5 127t-89.5 81t-121 28.5q-67 0 -119.5 -28.5t-89 -81t-55.5 -127t-19 -165.5v-112zM245 1525h144l191 -280h-109z" />
<glyph unicode="&#xf3;" horiz-adv-x="1005" d="M106 484v112q0 123 29 217t81 158.5t124.5 97.5t160.5 33q89 0 162 -33t125 -97.5t80.5 -158.5t28.5 -217v-112q0 -123 -28.5 -217t-80.5 -157.5t-124.5 -96.5t-160.5 -33q-89 0 -162 33t-125 96.5t-81 157.5t-29 217zM218 484q0 -93 19 -167t55.5 -126t89.5 -80t121 -28 q72 0 125 28t88 80t52.5 126t17.5 167v112q0 91 -19 165.5t-55.5 127t-89.5 81t-121 28.5q-67 0 -119.5 -28.5t-89 -81t-55.5 -127t-19 -165.5v-112zM435 1245l191 280h145l-231 -280h-105z" />
<glyph unicode="&#xf4;" horiz-adv-x="1005" d="M106 484v112q0 123 29 217t81 158.5t124.5 97.5t160.5 33q89 0 162 -33t125 -97.5t80.5 -158.5t28.5 -217v-112q0 -123 -28.5 -217t-80.5 -157.5t-124.5 -96.5t-160.5 -33q-89 0 -162 33t-125 96.5t-81 157.5t-29 217zM218 484q0 -93 19 -167t55.5 -126t89.5 -80t121 -28 q72 0 125 28t88 80t52.5 126t17.5 167v112q0 91 -19 165.5t-55.5 127t-89.5 81t-121 28.5q-67 0 -119.5 -28.5t-89 -81t-55.5 -127t-19 -165.5v-112zM270 1258v12l201 256h69l204 -258v-10h-100l-138 182l-138 -182h-98z" />
<glyph unicode="&#xf5;" horiz-adv-x="1005" d="M106 484v112q0 123 29 217t81 158.5t124.5 97.5t160.5 33q89 0 162 -33t125 -97.5t80.5 -158.5t28.5 -217v-112q0 -123 -28.5 -217t-80.5 -157.5t-124.5 -96.5t-160.5 -33q-89 0 -162 33t-125 96.5t-81 157.5t-29 217zM218 484q0 -93 19 -167t55.5 -126t89.5 -80t121 -28 q72 0 125 28t88 80t52.5 126t17.5 167v112q0 91 -19 165.5t-55.5 127t-89.5 81t-121 28.5q-67 0 -119.5 -28.5t-89 -81t-55.5 -127t-19 -165.5v-112zM224 1274q0 48 12.5 87.5t35 67.5t53 43.5t65.5 15.5q39 0 67.5 -17t54 -37.5t51 -37.5t60.5 -17q38 0 64.5 33t26.5 88 l80 -6q0 -48 -13 -88t-35.5 -68t-52.5 -43.5t-65 -15.5q-44 0 -72.5 17t-52 38t-48 38t-60.5 17q-38 0 -64 -31.5t-26 -86.5z" />
<glyph unicode="&#xf6;" horiz-adv-x="1005" d="M106 484v112q0 123 29 217t81 158.5t124.5 97.5t160.5 33q89 0 162 -33t125 -97.5t80.5 -158.5t28.5 -217v-112q0 -123 -28.5 -217t-80.5 -157.5t-124.5 -96.5t-160.5 -33q-89 0 -162 33t-125 96.5t-81 157.5t-29 217zM213 1395q0 35 21.5 58.5t60.5 23.5 q38 0 60.5 -23.5t22.5 -58.5q0 -34 -22.5 -57t-60.5 -23q-39 0 -60.5 23t-21.5 57zM218 484q0 -93 19 -167t55.5 -126t89.5 -80t121 -28q72 0 125 28t88 80t52.5 126t17.5 167v112q0 91 -19 165.5t-55.5 127t-89.5 81t-121 28.5q-67 0 -119.5 -28.5t-89 -81t-55.5 -127 t-19 -165.5v-112zM650 1394q0 35 22 58.5t60 23.5q39 0 61 -23.5t22 -58.5q0 -34 -22 -57t-61 -23q-38 0 -60 23t-22 57z" />
<glyph unicode="&#xf7;" horiz-adv-x="1019" d="M80 642v119h839v-119h-839zM430 291q0 35 20 59.5t56 24.5t56.5 -24.5t20.5 -59.5t-20.5 -59t-56.5 -24t-56 24t-20 59zM430 1088q0 36 20 60.5t56 24.5t56.5 -24.5t20.5 -60.5q0 -35 -20.5 -58.5t-56.5 -23.5t-56 23.5t-20 58.5z" />
<glyph unicode="&#xf8;" horiz-adv-x="1002" d="M104 484v112q0 123 29 217t81 158.5t124.5 97.5t160.5 33q102 0 182 -44l64 156h83l-83 -201q71 -63 110.5 -167t39.5 -250v-112q0 -123 -28.5 -217t-80.5 -157.5t-124.5 -96.5t-160.5 -33q-91 0 -166 35l-64 -155h-83l80 195q-78 61 -121 168.5t-43 260.5zM216 484 q0 -106 24.5 -187.5t72.5 -133.5l326 794q-29 20 -64 30.5t-76 10.5q-67 0 -119.5 -28.5t-89 -81t-55.5 -127t-19 -165.5v-112zM375 113q55 -30 126 -30q72 0 125 28t88 80t52.5 126t17.5 167v112q0 97 -21.5 174.5t-63.5 130.5z" />
<glyph unicode="&#xf9;" horiz-adv-x="986" d="M145 389v693h110v-695q0 -86 16 -143.5t44 -92.5t64.5 -50t77.5 -15q58 0 102.5 15t77 42t54.5 64.5t35 82.5v792h112v-1082h-108l-2 129q-43 -70 -112.5 -109.5t-172.5 -39.5q-67 0 -122 22.5t-94 71.5t-60.5 126.5t-21.5 188.5zM239 1525h144l191 -280h-109z" />
<glyph unicode="&#xfa;" horiz-adv-x="986" d="M145 389v693h110v-695q0 -86 16 -143.5t44 -92.5t64.5 -50t77.5 -15q58 0 102.5 15t77 42t54.5 64.5t35 82.5v792h112v-1082h-108l-2 129q-43 -70 -112.5 -109.5t-172.5 -39.5q-67 0 -122 22.5t-94 71.5t-60.5 126.5t-21.5 188.5zM429 1245l191 280h145l-231 -280h-105z " />
<glyph unicode="&#xfb;" horiz-adv-x="986" d="M145 389v693h110v-695q0 -86 16 -143.5t44 -92.5t64.5 -50t77.5 -15q58 0 102.5 15t77 42t54.5 64.5t35 82.5v792h112v-1082h-108l-2 129q-43 -70 -112.5 -109.5t-172.5 -39.5q-67 0 -122 22.5t-94 71.5t-60.5 126.5t-21.5 188.5zM264 1258v12l201 256h69l204 -258v-10 h-100l-138 182l-138 -182h-98z" />
<glyph unicode="&#xfc;" horiz-adv-x="986" d="M145 389v693h110v-695q0 -86 16 -143.5t44 -92.5t64.5 -50t77.5 -15q58 0 102.5 15t77 42t54.5 64.5t35 82.5v792h112v-1082h-108l-2 129q-43 -70 -112.5 -109.5t-172.5 -39.5q-67 0 -122 22.5t-94 71.5t-60.5 126.5t-21.5 188.5zM207 1395q0 35 21.5 58.5t60.5 23.5 q38 0 60.5 -23.5t22.5 -58.5q0 -34 -22.5 -57t-60.5 -23q-39 0 -60.5 23t-21.5 57zM644 1394q0 35 22 58.5t60 23.5q39 0 61 -23.5t22 -58.5q0 -34 -22 -57t-61 -23q-38 0 -60 23t-22 57z" />
<glyph unicode="&#xfd;" horiz-adv-x="857" d="M45 1082h122l269 -899l258 899h119l-381 -1255q-12 -37 -30 -83t-48 -86t-73.5 -67.5t-105.5 -27.5q-9 0 -20 1.5t-22.5 3.5t-21.5 4.5t-16 4.5l-1 102q10 -3 26.5 -5t24.5 -2q40 0 70.5 12.5t54 37t41.5 61t32 84.5l42 140zM379 1245l191 280h145l-231 -280h-105z" />
<glyph unicode="&#xfe;" horiz-adv-x="1012" d="M151 0v1536h112v-596q44 77 112 119.5t165 42.5q84 0 149 -29t110 -91t68 -158.5t23 -232.5v-101q0 -131 -23.5 -227t-67.5 -159t-109 -93.5t-147 -30.5q-97 0 -166.5 39.5t-113.5 108.5v-128h-1v-416h-110v416h-1zM263 244q16 -35 39.5 -64.5t54.5 -51t70 -33.5t88 -12 q135 0 199.5 99.5t64.5 307.5v101q0 208 -64.5 306t-201.5 98q-51 0 -91 -14.5t-70 -38.5t-52 -56t-37 -67v-575z" />
<glyph unicode="&#xff;" horiz-adv-x="857" d="M45 1082h122l269 -899l258 899h119l-381 -1255q-12 -37 -30 -83t-48 -86t-73.5 -67.5t-105.5 -27.5q-9 0 -20 1.5t-22.5 3.5t-21.5 4.5t-16 4.5l-1 102q10 -3 26.5 -5t24.5 -2q40 0 70.5 12.5t54 37t41.5 61t32 84.5l42 140zM157 1395q0 35 21.5 58.5t60.5 23.5 q38 0 60.5 -23.5t22.5 -58.5q0 -34 -22.5 -57t-60.5 -23q-39 0 -60.5 23t-21.5 57zM594 1394q0 35 22 58.5t60 23.5q39 0 61 -23.5t22 -58.5q0 -34 -22 -57t-61 -23q-38 0 -60 23t-22 57z" />
<glyph unicode="&#x152;" horiz-adv-x="1653" d="M110 576v304q0 132 33 242t92.5 188.5t143 122t184.5 43.5q69 0 134.5 -6t125.5 -14h705v-108h-645v-545h565v-106h-565v-591h650v-106h-710q-60 -8 -124.5 -14.5t-133.5 -6.5q-101 0 -184.5 43.5t-143.5 122.5t-93.5 189t-33.5 242zM221 576q0 -114 24.5 -205t69.5 -155 t108.5 -98.5t141.5 -34.5q52 0 104 3.5t100 10.5v1261q-96 15 -206 15q-78 0 -141.5 -33.5t-108 -97t-68.5 -154.5t-24 -206v-306z" />
<glyph unicode="&#x153;" horiz-adv-x="1624" d="M99 524v32q0 118 28 218t80.5 173t127 114t167.5 41q61 0 114.5 -18.5t98 -52t79.5 -81.5t59 -108q25 60 61 108t78.5 82t91.5 52t101 18q86 0 153.5 -33t113.5 -94t70 -146t24 -190v-103h-634v-26q0 -89 20 -167t57.5 -135.5t90.5 -91t120 -33.5q98 0 162.5 32.5 t107.5 86.5l48 -85q-23 -29 -53.5 -54t-70 -43.5t-88 -29t-106.5 -10.5t-110.5 18t-96.5 51t-80 80.5t-61 106.5q-49 -118 -138 -187t-211 -69q-93 0 -168 40.5t-127.5 113t-80.5 172.5t-28 218zM211 524q0 -89 18.5 -168.5t55 -140.5t91.5 -96.5t127 -35.5t126 35.5 t90.5 96.5t55 140.5t18.5 168.5v32q0 87 -18.5 167t-55 141t-91 97.5t-126.5 36.5t-126.5 -36.5t-91 -97.5t-55 -141t-18.5 -167v-32zM916 640h519v29q0 67 -16.5 127t-48 105t-78 71t-107.5 26q-54 0 -100 -27.5t-81 -75.5t-57.5 -113.5t-30.5 -141.5z" />
<glyph unicode="&#x178;" horiz-adv-x="1070" d="M39 1456h134l361 -792l363 792h131l-438 -908v-548h-114v548zM242 1704q0 35 21.5 58.5t60.5 23.5q38 0 60.5 -23.5t22.5 -58.5q0 -34 -22.5 -57t-60.5 -23q-39 0 -60.5 23t-21.5 57zM679 1703q0 35 22 58.5t60 23.5q39 0 61 -23.5t22 -58.5q0 -34 -22 -57t-61 -23 q-38 0 -60 23t-22 57z" />
<glyph unicode="&#x2c6;" horiz-adv-x="793" d="M156 1258v12l201 256h69l204 -258v-10h-100l-138 182l-138 -182h-98z" />
<glyph unicode="&#x2dc;" horiz-adv-x="800" d="M112 1266q0 48 12.5 87.5t35 67.5t53 43.5t65.5 15.5q39 0 67.5 -17t54 -37.5t51 -37.5t60.5 -17q38 0 64.5 33t26.5 88l80 -6q0 -48 -13 -88t-35.5 -68t-52.5 -43.5t-65 -15.5q-44 0 -72.5 17t-52 38t-48 38t-60.5 17q-38 0 -64 -31.5t-26 -86.5z" />
<glyph unicode="&#x2000;" horiz-adv-x="954" />
<glyph unicode="&#x2001;" horiz-adv-x="1908" />
<glyph unicode="&#x2002;" horiz-adv-x="954" />
<glyph unicode="&#x2003;" horiz-adv-x="1908" />
<glyph unicode="&#x2004;" horiz-adv-x="636" />
<glyph unicode="&#x2005;" horiz-adv-x="477" />
<glyph unicode="&#x2006;" horiz-adv-x="318" />
<glyph unicode="&#x2007;" horiz-adv-x="318" />
<glyph unicode="&#x2008;" horiz-adv-x="238" />
<glyph unicode="&#x2009;" horiz-adv-x="381" />
<glyph unicode="&#x200a;" horiz-adv-x="106" />
<glyph unicode="&#x2010;" horiz-adv-x="529" d="M59 590v103h404v-103h-404z" />
<glyph unicode="&#x2011;" horiz-adv-x="529" d="M59 590v103h404v-103h-404z" />
<glyph unicode="&#x2012;" horiz-adv-x="529" d="M59 590v103h404v-103h-404z" />
<glyph unicode="&#x2013;" horiz-adv-x="1162" d="M151 685v104h841v-104h-841z" />
<glyph unicode="&#x2014;" horiz-adv-x="1370" d="M72 685v104h1122v-104h-1122z" />
<glyph unicode="&#x2018;" horiz-adv-x="353" d="M102 1119v113q0 92 33 177t90 145l66 -52q-39 -63 -59 -125.5t-20 -142.5v-115h-110z" />
<glyph unicode="&#x2019;" horiz-adv-x="353" d="M70 1150q38 62 58 125t20 142v119h110v-116q0 -92 -32.5 -177.5t-90.5 -145.5z" />
<glyph unicode="&#x201a;" horiz-adv-x="345" d="M53 -181q39 63 58.5 126t19.5 141v118h111v-115q0 -45 -8.5 -90t-24.5 -86.5t-39 -78.5t-51 -67z" />
<glyph unicode="&#x201c;" horiz-adv-x="572" d="M104 1119v113q0 92 33 177t90 145l66 -52q-39 -63 -59 -125.5t-20 -142.5v-115h-110zM325 1119v113q0 92 33 177t90 145l66 -52q-39 -63 -59 -125.5t-20 -142.5v-115h-110z" />
<glyph unicode="&#x201d;" horiz-adv-x="577" d="M76 1150q38 62 58 125t20 142v119h110v-116q0 -92 -32.5 -177.5t-90.5 -145.5zM291 1150q38 62 58 125t20 142v119h110v-116q0 -92 -32.5 -177.5t-90.5 -145.5z" />
<glyph unicode="&#x201e;" horiz-adv-x="556" d="M53 -190q39 65 58.5 130t19.5 146v151h111v-148q0 -94 -33 -182t-90 -150zM260 -190q39 65 58 130t19 146v151h111v-148q0 -94 -32.5 -182t-90.5 -150z" />
<glyph unicode="&#x2022;" horiz-adv-x="662" d="M146 718v65q0 39 13 72t37 57t58.5 37.5t76.5 13.5q43 0 77.5 -13.5t58.5 -37.5t37 -57t13 -72v-65q0 -39 -12.5 -71.5t-36.5 -56.5t-58.5 -37t-77.5 -13t-77.5 13t-58.5 37t-37 56.5t-13 71.5z" />
<glyph unicode="&#x2026;" horiz-adv-x="1152" d="M160 73q0 36 22.5 60.5t62.5 24.5t63 -24.5t23 -60.5q0 -35 -23 -58t-63 -23t-62.5 23t-22.5 58zM508 73q0 36 22.5 60.5t62.5 24.5t63 -24.5t23 -60.5q0 -35 -23 -58t-63 -23t-62.5 23t-22.5 58zM841 73q0 36 22.5 60.5t62.5 24.5t63 -24.5t23 -60.5q0 -35 -23 -58 t-63 -23t-62.5 23t-22.5 58z" />
<glyph unicode="&#x202f;" horiz-adv-x="381" />
<glyph unicode="&#x2039;" horiz-adv-x="552" d="M111 546v19l248 379h93l-229 -389l229 -389h-93z" />
<glyph unicode="&#x203a;" horiz-adv-x="552" d="M100 161l229 389l-229 394h95l248 -384v-19l-248 -380h-95z" />
<glyph unicode="&#x205f;" horiz-adv-x="477" />
<glyph unicode="&#x20ac;" d="M91 562v90h160v163h-160v92h160q0 141 33 247.5t92 178t142 107.5t182 36q52 0 99 -8.5t98 -22.5l-10 -111q-42 16 -89 25.5t-97 9.5q-77 0 -139.5 -28.5t-106 -85.5t-67 -143.5t-23.5 -202.5v-2h346v-92h-346v-163h346v-90h-346v-15q0 -115 24 -201.5t68 -144.5 t106.5 -87t139.5 -29q49 0 95.5 8.5t88.5 25.5l10 -109q-45 -14 -94.5 -22t-100.5 -8q-100 0 -183 35.5t-142.5 107t-92.5 177.5t-33 247v15h-160z" />
<glyph unicode="&#x2122;" horiz-adv-x="1104" d="M109 1386v70h328v-70h-132v-467h-64v467h-132zM505 919v537h80l132 -428l132 428h79v-537h-63v415l-126 -415h-44l-126 421v-421h-64z" />
<glyph unicode="&#x25fc;" horiz-adv-x="1080" d="M0 0v1080h1080v-1080h-1080z" />
<glyph unicode="&#xfb02;" horiz-adv-x="1046" d="M72 982v100h149v133q0 166 73 254t202 88q26 0 53.5 -4t53.5 -13l-8 -102q-20 5 -42 8t-48 3q-81 0 -126.5 -60.5t-45.5 -173.5v-133h212v-100h-212v-982h-112v982h-149zM775 0v1536h112v-1536h-112z" />
<glyph unicode="&#xfb03;" horiz-adv-x="1584" d="M72 982v100h149v133q0 166 73 254t202 88q26 0 53.5 -4t53.5 -13l-8 -102q-20 5 -42 8t-48 3q-81 0 -126.5 -60.5t-45.5 -173.5v-133h212v-100h-212v-982h-112v982h-149zM672 982v100h150v113q0 87 21.5 154.5t61.5 113.5t97 70t128 24q57 0 115 -15t118 -44l-19 -105 q-43 22 -91.5 37t-114.5 15q-103 0 -153.5 -63.5t-50.5 -186.5v-113h207v-100h-207v-982h-112v982h-150zM1310 0v1082h112v-1082h-112z" />
<glyph unicode="&#xfb04;" horiz-adv-x="1661" d="M72 982v100h149v133q0 166 73 254t202 88q26 0 53.5 -4t53.5 -13l-8 -102q-20 5 -42 8t-48 3q-81 0 -126.5 -60.5t-45.5 -173.5v-133h212v-100h-212v-982h-112v982h-149zM687 982v100h149v133q0 166 73 254t202 88q26 0 53.5 -4t53.5 -13l-8 -102q-20 5 -42 8t-48 3 q-81 0 -126.5 -60.5t-45.5 -173.5v-133h212v-100h-212v-982h-112v982h-149zM1390 0v1536h112v-1536h-112z" />
</font>
</defs>
</svg>
